<?xml version="1.0" standalone="no"?>
<!DOCTYPE svg PUBLIC "-//W3C//DTD SVG 1.1//EN" "http://www.w3.org/Graphics/SVG/1.1/DTD/svg11.dtd" >
<svg xmlns="http://www.w3.org/2000/svg" xmlns:xlink="http://www.w3.org/1999/xlink" version="1.1">
<metadata>
Created by FontForge 20150318 at Tue Nov  3 15:10:58 2015
 By uniteet7
</metadata>
<defs>
<font id="GothamRounded-Paddington" horiz-adv-x="1275" >
  <font-face 
    font-family="Gotham Rounded Paddington"
    font-weight="400"
    font-stretch="normal"
    units-per-em="2048"
    panose-1="2 0 0 0 0 0 0 0 0 0"
    ascent="1638"
    descent="-410"
    x-height="1098"
    cap-height="1446"
    bbox="-123 -342 2179 1909"
    underline-thickness="102"
    underline-position="-613"
    unicode-range="U+000D-FB04"
  />
<missing-glyph horiz-adv-x="748" 
d="M68 0v1365h544v-1365h-544zM136 68h408v1229h-408v-1229z" />
    <glyph glyph-name=".notdef" horiz-adv-x="748" 
d="M68 0v1365h544v-1365h-544zM136 68h408v1229h-408v-1229z" />
    <glyph glyph-name="glyph1" horiz-adv-x="0" 
 />
    <glyph glyph-name="uni000D" unicode="&#xd;" horiz-adv-x="614" 
 />
    <glyph glyph-name="space" unicode=" " horiz-adv-x="614" 
 />
    <glyph glyph-name="exclam" unicode="!" horiz-adv-x="663" 
d="M150 1335q-4 45 18 75t63 30h201q41 0 63.5 -30t18.5 -75l-88 -770q-4 -41 -29.5 -65.5t-64.5 -24.5t-64.5 24.5t-29.5 65.5zM154 162v4q0 74 50 124t128 50t128 -50t50 -124v-4q0 -74 -50 -124t-128 -50t-128 50t-50 124z" />
    <glyph glyph-name="quotedbl" unicode="&#x22;" horiz-adv-x="1064" 
d="M121 862l24 438q4 59 42 100.5t102 41.5h98q35 0 57.5 -22.5t22.5 -59.5q0 -23 -6 -43l-164 -473q-12 -35 -33.5 -55.5t-56.5 -20.5q-37 0 -62.5 26.5t-23.5 67.5zM604 862l25 438q4 59 42 100.5t101 41.5h98q35 0 57.5 -22.5t22.5 -59.5q0 -23 -6 -43l-164 -473
q-12 -35 -33.5 -55.5t-56.5 -20.5q-37 0 -62.5 26.5t-23.5 67.5z" />
    <glyph glyph-name="numbersign" unicode="#" horiz-adv-x="1433" 
d="M59 438q0 53 39 92t92 39h93l51 303h-72q-53 0 -92 39t-39 93q0 53 39 92t92 39h117l35 202q8 49 45 79t86 30q31 0 56.5 -13.5t44 -35t26.5 -49t4 -56.5l-27 -157h277l35 202q8 49 44.5 79t86.5 30q31 0 56.5 -13.5t43.5 -35t26.5 -49t4.5 -56.5l-27 -157h47
q53 0 92 -39t39 -92t-39 -92.5t-92 -39.5h-92l-51 -303h71q53 0 92.5 -38.5t39.5 -92.5q0 -53 -39 -92t-93 -39h-116l-37 -211q-8 -47 -45 -77.5t-86 -30.5q-31 0 -56.5 13t-44 34.5t-27.5 49.5t-3 56l28 166h-276l-37 -211q-8 -41 -42 -74.5t-89 -33.5q-31 0 -56.5 12
t-44 32.5t-27.5 48.5t-3 60l29 166h-48q-53 0 -92 39t-39 92zM553 569h276l52 303h-277z" />
    <glyph glyph-name="dollar" unicode="$" horiz-adv-x="1323" 
d="M100 270q0 59 41 99.5t101 40.5q39 0 80 -27q66 -41 128 -69.5t134 -45.5v326q-221 59 -331 156.5t-110 279.5q0 84 31 153.5t87 122t136 85t176 43.5v24q0 45 31 76t76 31t75.5 -31t30.5 -76v-28q164 -25 297 -99q29 -16 51.5 -46t22.5 -77q0 -59 -40 -98t-99 -39
q-39 0 -72 19q-43 23 -86 41t-84 28v-311q233 -63 339 -165.5t106 -274.5q0 -86 -32 -156t-89.5 -122t-137 -85t-176.5 -43v-108q0 -45 -30.5 -76t-75.5 -31t-76 30.5t-31 76.5v110q-111 14 -211 51t-192 92q-33 20 -51.5 51t-18.5 72zM442 1049q0 -47 29 -82t113 -66v277
q-74 -10 -108 -45t-34 -84zM776 258q146 22 146 133q0 51 -31 87t-115 65v-285z" />
    <glyph glyph-name="percent" unicode="%" horiz-adv-x="1761" 
d="M92 1079v4q0 76 25.5 142.5t72 117t111 79t141.5 28.5q78 0 141.5 -28.5t109.5 -78t70.5 -115t24.5 -141.5v-4q0 -76 -25.5 -142.5t-71.5 -116.5t-110.5 -78.5t-142.5 -28.5t-141.5 28.5t-109.5 77.5t-70.5 115t-24.5 141zM307 1083q0 -72 37 -126t98 -54q66 0 98.5 53.5
t32.5 122.5v4q0 72 -36.5 126.5t-98.5 54.5q-66 0 -98.5 -52.5t-32.5 -124.5v-4zM322 84q0 20 6 35.5t16 30.5l916 1253q31 43 83 43q41 0 69 -27.5t28 -68.5q0 -37 -23 -66l-915 -1253q-31 -43 -84 -43q-41 0 -68.5 27.5t-27.5 68.5zM973 346v4q0 76 25.5 142.5t71.5 116.5
t110.5 79t142.5 29t141.5 -29t109.5 -78t70.5 -114.5t24.5 -141.5v-4q0 -76 -25.5 -142.5t-71.5 -116.5t-110.5 -78.5t-142.5 -28.5t-141.5 28.5t-109.5 77.5t-70.5 114.5t-24.5 141.5zM1188 350q0 -72 37 -126t98 -54q66 0 98.5 53t32.5 123v4q0 72 -37 126t-98 54
q-66 0 -98.5 -52t-32.5 -124v-4z" />
    <glyph glyph-name="ampersand" unicode="&#x26;" horiz-adv-x="1425" 
d="M70 393v4q0 137 71.5 234.5t206.5 159.5q-53 74 -76.5 143.5t-23.5 142.5v4q0 74 28.5 141.5t84 120t136.5 84t185 31.5q92 0 166 -27.5t127 -76.5t81.5 -114.5t28.5 -141.5v-4q0 -72 -21.5 -130.5t-61 -103.5t-95 -80t-121.5 -61l189 -187q47 70 94 156q10 23 40 47.5
t77 24.5q53 0 92 -39t39 -92q0 -35 -19 -66q-61 -109 -137 -215l131 -129q23 -23 35 -46t12 -56q0 -59 -39 -98t-98 -39q-33 0 -56.5 10t-47.5 35l-121 120q-88 -76 -192.5 -120.5t-233.5 -44.5q-102 0 -190.5 28.5t-153 82.5t-101 130t-36.5 172zM387 406q0 -76 56.5 -122
t144.5 -46q55 0 107.5 22.5t101.5 63.5l-275 276q-72 -39 -103.5 -88t-31.5 -102v-4zM537 1063q0 -47 19.5 -87t64.5 -91q94 35 142 78t48 112v4q0 61 -38 97t-97 36q-63 0 -101 -39.5t-38 -105.5v-4z" />
    <glyph glyph-name="quotesingle" unicode="'" horiz-adv-x="585" 
d="M121 862l24 438q4 59 42 100.5t102 41.5h98q35 0 59.5 -22.5t24.5 -59.5q0 -23 -6 -43l-164 -473q-12 -35 -34.5 -55.5t-59.5 -20.5q-39 0 -63.5 26.5t-22.5 67.5z" />
    <glyph glyph-name="parenleft" unicode="(" horiz-adv-x="911" 
d="M121 588q0 281 128 485.5t382 358.5q8 4 27.5 10t46.5 6q23 0 44 -11.5t37.5 -28.5t26.5 -39.5t10 -47.5q0 -37 -14 -61.5t-37 -40.5q-178 -133 -260 -280.5t-82 -350.5q0 -102 20.5 -188.5t61.5 -162t105.5 -144t154.5 -136.5q23 -16 37 -41t14 -61q0 -25 -10 -47.5
t-26.5 -40t-37.5 -28.5t-44 -11q-27 0 -46.5 6t-27.5 10q-254 154 -382 358.5t-128 485.5z" />
    <glyph glyph-name="parenright" unicode=")" horiz-adv-x="911" 
d="M88 -145q0 37 14.5 61.5t36.5 40.5q178 133 260 280.5t82 350.5q0 102 -20.5 188t-61.5 162t-106.5 144.5t-153.5 136.5q-23 16 -37 40.5t-14 61.5q0 25 10.5 47.5t26.5 39.5t37.5 28.5t44.5 11.5q27 0 46 -6t28 -10q254 -154 382 -359t128 -485q0 -281 -128 -485.5
t-382 -358.5q-8 -4 -27.5 -10t-46.5 -6q-23 0 -44.5 11t-37.5 28.5t-26.5 40t-10.5 47.5z" />
    <glyph glyph-name="asterisk" unicode="*" horiz-adv-x="880" 
d="M113 956q0 29 16 47.5t39 26.5l166 70l-166 69q-23 10 -39 29t-16 47q0 33 23.5 55.5t56.5 22.5q27 0 57 -25l139 -106l-22 166q-4 39 16 65.5t57 26.5t57.5 -25.5t16.5 -64.5l-22 -168l139 106q31 25 59 25q33 0 55.5 -23.5t22.5 -56.5q0 -29 -16.5 -46t-38.5 -28
l-166 -69l166 -70q23 -10 39 -28.5t16 -47.5q0 -33 -23.5 -55t-56.5 -22q-27 0 -57 24l-139 107l22 -166q4 -39 -16.5 -65.5t-57.5 -26.5t-57.5 25.5t-15.5 64.5l22 168l-139 -107q-31 -25 -60 -24q-33 0 -55 23.5t-22 55.5z" />
    <glyph glyph-name="plus" unicode="+" horiz-adv-x="1310" 
d="M127 721q0 59 41 100t100 41h242v236q0 59 43 102t102 43t102.5 -43t43.5 -102v-236h241q59 0 100.5 -41t41.5 -100t-41 -100t-101 -41h-241v-236q0 -59 -43 -102t-103 -43q-59 0 -102 43t-43 102v236h-242q-59 0 -100 41t-41 100z" />
    <glyph glyph-name="comma" unicode="," horiz-adv-x="585" 
d="M39 -262q0 29 17.5 45t43.5 22q78 18 120 69.5t38 125.5q-53 14 -98 58t-45 110v4q0 72 46 120t124 48q86 0 134 -61.5t48 -167.5v-9q0 -113 -32 -195.5t-89 -139.5q-47 -47 -109.5 -73t-119.5 -26q-41 0 -59.5 20.5t-18.5 49.5z" />
    <glyph glyph-name="hyphen" unicode="-" horiz-adv-x="835" 
d="M90 635q0 61 44 105t106 44h356q61 0 105 -44t44 -105t-44 -105.5t-105 -44.5h-356q-61 0 -105.5 44t-44.5 106z" />
    <glyph glyph-name="period" unicode="." horiz-adv-x="585" 
d="M115 162v4q0 74 50 124t128 50t128 -50t50 -124v-4q0 -74 -50 -124t-128 -50t-128 50t-50 124z" />
    <glyph glyph-name="slash" unicode="/" horiz-adv-x="1085" 
d="M6 -158q0 16 5 32.5t9 27.5l801 1673q35 72 109 72q49 0 85 -35t36 -82q0 -16 -5.5 -32.5t-9.5 -27.5l-800 -1673q-35 -72 -109 -71q-49 0 -85 34.5t-36 81.5z" />
    <glyph glyph-name="zero" unicode="0" horiz-adv-x="1495" 
d="M111 713v4q0 156 46 291t130 235t201.5 157.5t261.5 57.5q141 0 258.5 -56t200.5 -155.5t129 -234.5t46 -291v-4q0 -156 -46 -291t-130 -235.5t-202 -158t-261 -57.5t-260.5 56.5t-200.5 156t-128 234.5t-45 291zM434 717q0 -98 22.5 -182t63.5 -144.5t99.5 -95.5
t130.5 -35t129 34t98 94.5t62.5 143t21.5 181.5v4q0 98 -22.5 181t-64.5 144.5t-100.5 96.5t-128.5 35q-72 0 -129 -34t-97 -94.5t-62.5 -143.5t-22.5 -181v-4z" />
    <glyph glyph-name="one" unicode="1" horiz-adv-x="864" 
d="M61 1233q0 47 29 84t76 51l203 59q45 12 79.5 19.5t67.5 7.5h4q66 0 111 -45t45 -111v-1155q0 -66 -45 -110.5t-111 -44.5t-110.5 45t-44.5 110v992l-111 -29q-12 -4 -27.5 -6t-27.5 -2q-55 0 -96.5 40t-41.5 95z" />
    <glyph glyph-name="two" unicode="2" 
d="M88 150q0 92 82 157l408 334q68 55 114.5 98t76.5 83t43 79t13 84q0 92 -53 139t-139 47q-68 0 -121 -29.5t-113 -94.5q-16 -16 -42.5 -31t-63.5 -15q-59 0 -101 42t-42 102q0 55 36 98q86 100 194.5 155.5t272.5 55.5q111 0 202 -31.5t155.5 -89t100.5 -139.5t36 -182
v-4q0 -90 -23.5 -161t-69.5 -133.5t-118 -125t-166 -135.5l-233 -181h499q57 0 97.5 -39.5t40.5 -97.5q0 -57 -40 -96t-98 -39h-778q-74 0 -122 39t-48 111z" />
    <glyph glyph-name="three" unicode="3" horiz-adv-x="1271" 
d="M109 252q0 61 45 106t106 45q35 0 58.5 -11t41.5 -27q61 -53 128 -80t153 -27q90 0 146.5 47t56.5 127v4q0 88 -74 135t-207 47h-49q-55 0 -95 40t-40 96q0 33 15.5 62.5t51.5 66.5l279 280h-440q-55 0 -95 40t-40 95t39.5 95.5t95.5 40.5h698q70 0 115 -37t45 -103
q0 -59 -25.5 -97t-68.5 -79l-281 -268q74 -12 142.5 -39t122.5 -74t87 -117.5t33 -170.5v-5q0 -102 -36 -187t-102.5 -148.5t-162.5 -98.5t-215 -35q-154 0 -270.5 44t-204.5 120q-23 18 -38 48t-15 65z" />
    <glyph glyph-name="four" unicode="4" horiz-adv-x="1411" 
d="M72 455q0 49 19.5 90t53.5 82l623 723q45 53 86 79.5t111 26.5q63 0 107 -43t44 -106v-742h76q53 0 91 -38t38 -91t-38 -90t-91 -37h-76v-172q0 -63 -44 -106t-107 -43t-106.5 43t-43.5 106v172h-590q-63 0 -108 41t-45 105zM434 565h381v447z" />
    <glyph glyph-name="five" unicode="5" horiz-adv-x="1290" 
d="M121 231q0 61 44 106.5t105 45.5q29 0 48.5 -7t37.5 -22q66 -47 131.5 -69.5t141.5 -22.5q100 0 165.5 51.5t65.5 147.5v4q0 92 -70.5 143t-183.5 51q-45 0 -78.5 -6t-59.5 -12t-44 -12t-35 -6q-35 0 -65.5 14t-77.5 49q-63 45 -58 127l29 485q4 57 43 96.5t96 39.5h623
q57 0 98 -41t41 -99q0 -57 -41 -97t-98 -40h-483l-17 -248q43 10 86 17.5t103 7.5q106 0 197 -26.5t159 -82t106.5 -142.5t38.5 -208v-4q0 -115 -38.5 -206t-109.5 -155.5t-169 -99.5t-217 -35q-150 0 -257.5 37t-193.5 99q-29 20 -46 49.5t-17 70.5z" />
    <glyph glyph-name="six" unicode="6" horiz-adv-x="1355" 
d="M111 672v4q0 166 37.5 309t115.5 247.5t197 165t278 60.5q109 0 195 -23.5t151 -62.5q37 -23 59.5 -55.5t22.5 -79.5q0 -61 -44 -103t-105 -42q-20 0 -41 6t-37 16q-49 29 -97 43t-114 14q-68 0 -118 -25.5t-86 -69.5t-56 -105.5t-29 -130.5q53 35 122 63.5t175 28.5
t198.5 -30t160 -87t106.5 -142t39 -198v-4q0 -111 -42 -202t-114.5 -156.5t-173 -101.5t-217.5 -36q-141 0 -239.5 39t-173.5 115q-78 78 -124 204t-46 339zM432 459q0 -92 66.5 -152.5t183.5 -60.5t181.5 59.5t64.5 151.5v4q0 92 -66.5 150.5t-183.5 58.5t-181.5 -57.5
t-64.5 -149.5v-4z" />
    <glyph glyph-name="seven" unicode="7" horiz-adv-x="1267" 
d="M127 1296q0 57 40 97.5t97 40.5h778q66 0 105 -37t39 -105q0 -35 -12.5 -75.5t-32.5 -77.5l-576 -1045q-31 -57 -67.5 -81.5t-83.5 -24.5q-63 0 -112.5 36.5t-49.5 104.5q0 20 8 48t21 50l532 934h-549q-57 0 -97 39t-40 96z" />
    <glyph glyph-name="eight" unicode="8" horiz-adv-x="1290" 
d="M92 393v4q0 131 58.5 212t173.5 134q-84 51 -133.5 124t-49.5 190v4q0 82 36 153.5t102.5 125t158.5 84t207 30.5q113 0 206 -30.5t159.5 -83t102.5 -125t36 -154.5v-4q0 -117 -49 -189.5t-133 -124.5q109 -57 170 -134t61 -203v-5q0 -100 -42 -178t-115.5 -132
t-175 -82.5t-220.5 -28.5t-220 29.5t-175 83.5t-116 130t-42 170zM397 418q0 -74 65.5 -126t182.5 -52t182.5 51t65.5 127v4q0 84 -69.5 130t-178.5 46t-178.5 -46t-69.5 -130v-4zM440 1024q0 -76 55.5 -126t149.5 -50t149.5 49t55.5 125v4q0 66 -53.5 117t-151.5 51
t-151.5 -50t-53.5 -116v-4z" />
    <glyph glyph-name="nine" unicode="9" horiz-adv-x="1355" 
d="M115 952v4q0 109 40 201t111.5 158.5t173 104.5t222.5 38q72 0 130 -9t107 -27.5t92 -48.5t84 -70q39 -39 70 -88.5t53.5 -115t34.5 -148.5t12 -189v-4q0 -174 -41 -318.5t-119.5 -247t-195.5 -160t-271 -57.5q-121 0 -210 27t-168 76q-33 20 -53.5 53t-20.5 76
q0 61 44 102t105 41q23 0 43.5 -7t38.5 -17q55 -33 108.5 -48.5t121.5 -15.5q133 0 203.5 90t87.5 236q-53 -45 -125 -72t-166 -27q-117 0 -211 32t-162 91.5t-103.5 145.5t-35.5 194zM428 967q0 -96 66.5 -155.5t183.5 -59.5t181.5 60t64.5 153v4q0 96 -66.5 157.5
t-185.5 61.5q-117 0 -180.5 -60.5t-63.5 -156.5v-4z" />
    <glyph glyph-name="colon" unicode=":" horiz-adv-x="606" 
d="M125 162v4q0 74 50 124t128 50t128 -50t50 -124v-4q0 -74 -50 -124t-128 -50t-128 50t-50 124zM125 932v4q0 74 50 124t128 50t128 -50t50 -124v-4q0 -74 -50 -124t-128 -50t-128 50t-50 124z" />
    <glyph glyph-name="semicolon" unicode=";" horiz-adv-x="606" 
d="M49 -262q0 29 17.5 45t44.5 22q78 18 119.5 69.5t37.5 125.5q-53 14 -98 58t-45 110v4q0 72 46 120t124 48q86 0 134 -61.5t48 -167.5v-9q0 -113 -31.5 -195.5t-89.5 -139.5q-47 -47 -109.5 -73t-119.5 -26q-41 0 -59.5 20.5t-18.5 49.5zM125 932v4q0 74 50 124t128 50
t128 -50t50 -124v-4q0 -74 -50 -124t-128 -50t-128 50t-50 124z" />
    <glyph glyph-name="less" unicode="&#x3c;" horiz-adv-x="1310" 
d="M127 711v20q0 59 33 102.5t92 71.5l690 328q18 10 35.5 15t40.5 5q49 2 87 -35.5t38 -93.5q0 -45 -22.5 -75.5t-63.5 -49.5l-619 -276l619 -277q41 -18 63.5 -52t22.5 -77q0 -57 -39 -93t-96 -34q-16 0 -33 5.5t-33 13.5l-690 328q-59 29 -92 71.5t-33 102.5z" />
    <glyph glyph-name="equal" unicode="=" horiz-adv-x="1310" 
d="M137 455q0 59 41 100t101 41h753q59 0 100.5 -41t41.5 -100t-41 -100.5t-101 -41.5h-753q-59 0 -100.5 41t-41.5 101zM137 987q0 59 41 100t101 41h753q59 0 100.5 -40.5t41.5 -100.5q0 -59 -41 -100t-101 -41h-753q-59 0 -100.5 41t-41.5 100z" />
    <glyph glyph-name="greater" unicode="&#x3e;" horiz-adv-x="1310" 
d="M168 317q0 45 22.5 76t63.5 49l618 277l-618 276q-41 18 -63.5 52t-22.5 77q0 57 39 93t96 34q16 0 32.5 -5t33.5 -13l690 -328q59 -29 92 -71.5t33 -102.5v-20q0 -59 -33 -102.5t-92 -71.5l-690 -328q-18 -10 -36 -15.5t-40 -5.5q-49 -2 -87 36t-38 93z" />
    <glyph glyph-name="question" unicode="?" horiz-adv-x="1114" 
d="M63 1194q0 29 12.5 58.5t41.5 52.5q82 68 186.5 107.5t239.5 39.5q111 0 202 -27.5t156.5 -82t101 -133.5t35.5 -181v-4q0 -98 -31.5 -168t-86 -119t-128 -78.5t-157.5 -46.5l-6 -37q-6 -41 -36 -70.5t-75 -29.5h-16q-45 0 -75 30t-36 70l-20 140q-8 51 18.5 83.5
t75.5 39.5q135 16 197.5 59t62.5 119v4q0 70 -49 107.5t-139 37.5q-129 0 -238 -82q-18 -14 -42 -23t-50 -9q-59 0 -101.5 42t-42.5 101zM324 162v4q0 74 50 124t128 50t128 -50t50 -124v-4q0 -74 -50 -124t-128 -50t-128 50t-50 124z" />
    <glyph glyph-name="at" unicode="@" horiz-adv-x="2007" 
d="M109 561q0 184 69.5 347t190 285t284.5 193.5t353 71.5q188 0 351 -67.5t283.5 -180t189 -259t68.5 -304.5q0 -129 -31.5 -225t-87 -160.5t-130 -96.5t-158.5 -32q-125 0 -199.5 39t-113.5 84q-53 -47 -128 -85t-176 -38q-78 0 -146.5 27.5t-119.5 79t-79.5 124
t-28.5 164.5q0 109 37.5 203t101 163t146.5 108.5t173 39.5q106 0 173 -39.5t110 -99.5v2q10 61 43 92t86 31t92 -41t27 -108l-80 -457q-4 -16 -5 -33.5t-1 -30.5q0 -55 39 -92t110 -37q55 0 102.5 27t82.5 80t55 131t20 180q0 141 -61 273.5t-168.5 233.5t-256 161.5
t-320.5 60.5q-174 0 -322.5 -64.5t-257.5 -175t-170 -259t-61 -316.5q0 -170 61 -317.5t171 -257t261.5 -173t333.5 -63.5q145 0 259 32t224 95q8 6 23 6q16 0 26.5 -12t10.5 -29q0 -12 -6.5 -20t-14.5 -12q-115 -66 -241.5 -104t-280.5 -38q-197 0 -363.5 71t-289.5 192.5
t-191.5 283.5t-68.5 346zM754 543q0 -96 53 -147.5t139 -51.5q49 0 93 22.5t78 62.5t53.5 93t19.5 117q0 88 -53.5 140t-137.5 52q-49 0 -94 -22.5t-78.5 -60t-53 -91t-19.5 -114.5z" />
    <glyph glyph-name="A" unicode="A" horiz-adv-x="1568" 
d="M74 135q0 16 5 33.5t13 34.5l500 1128q27 59 73 92t111 33h19q66 0 110.5 -32.5t71.5 -92.5l500 -1128q16 -37 16 -64q0 -63 -43 -107t-107 -44q-55 0 -92 29.5t-59 78.5l-96 226h-631l-100 -236q-20 -47 -58.5 -72.5t-87.5 -25.5q-61 0 -103 43t-42 104zM582 600h397
l-199 473z" />
    <glyph glyph-name="B" unicode="B" horiz-adv-x="1478" 
d="M172 158v1118q0 66 46 112t112 46h508q248 0 374 -127q98 -98 99 -244v-4q0 -61 -15.5 -108.5t-41 -85.5t-59.5 -66.5t-73 -48.5q125 -47 197 -128t72 -225v-4q0 -98 -38 -172t-108.5 -123t-170 -73.5t-220.5 -24.5h-524q-66 0 -112 46t-46 112zM479 276h375
q104 0 163.5 38t59.5 118v4q0 72 -55 114t-178 42h-365v-316zM479 854h291q104 0 165.5 36t61.5 116v4q0 72 -53 109.5t-153 37.5h-312v-303z" />
    <glyph glyph-name="C" unicode="C" horiz-adv-x="1511" 
d="M109 713v4q0 154 55 288t153.5 235t235.5 159.5t303 58.5q162 0 275.5 -40t203.5 -105q25 -18 43.5 -51t18.5 -74q0 -66 -45 -110t-111 -44q-33 0 -55.5 10.5t-38.5 20.5q-66 49 -136.5 75.5t-156.5 26.5q-90 0 -167 -34.5t-132 -96t-86 -142.5t-31 -173v-4
q0 -92 31 -174t85 -143.5t131 -97.5t169 -36q100 0 172 30t139 83q41 35 95 35q59 0 103 -43t44 -103q0 -37 -15.5 -65.5t-37.5 -46.5q-96 -84 -217 -132.5t-293 -48.5q-158 0 -293 57.5t-233.5 157t-153.5 234.5t-55 289z" />
    <glyph glyph-name="D" unicode="D" horiz-adv-x="1601" 
d="M172 158v1118q0 66 46 112t112 46h401q168 0 308.5 -54.5t241.5 -150.5t156.5 -226.5t55.5 -281.5v-4q0 -152 -55.5 -283t-156.5 -227t-241.5 -151.5t-308.5 -55.5h-401q-66 0 -112 46t-46 112zM487 285h244q96 0 176 30.5t136.5 88t88 135t31.5 174.5v4q0 94 -31.5 174
t-88 137t-136.5 89t-176 32h-244v-864z" />
    <glyph glyph-name="E" unicode="E" horiz-adv-x="1372" 
d="M172 158v1118q0 66 46 112t112 46h794q59 0 100.5 -41t41.5 -101q0 -59 -41 -99t-101 -40h-639v-291h547q59 0 100.5 -41t41.5 -100t-41 -99t-101 -40h-547v-301h650q59 0 100 -41t41 -101q0 -59 -41 -99t-100 -40h-805q-66 0 -112 46t-46 112z" />
    <glyph glyph-name="F" unicode="F" horiz-adv-x="1343" 
d="M172 145v1131q0 66 46 112t112 46h803q59 0 101 -42t42 -102q0 -59 -42 -101t-101 -42h-646v-305h553q59 0 101.5 -42t42.5 -102q0 -59 -42 -101t-102 -42h-553v-410q0 -66 -46 -111.5t-111 -45.5q-66 0 -112 46t-46 111z" />
    <glyph glyph-name="G" unicode="G" horiz-adv-x="1605" 
d="M109 713v4q0 154 56 288t156.5 235t237.5 159.5t301 58.5t277.5 -36t212.5 -103q23 -16 44 -48t21 -79q0 -66 -45 -111t-110 -45q-35 0 -57.5 10.5t-39.5 22.5q-66 47 -138.5 72.5t-174.5 25.5q-86 0 -161 -35.5t-131 -96t-88 -141.5t-32 -173v-4q0 -98 32 -181
t90 -144.5t137 -95.5t175 -34q176 0 297 86v205h-213q-57 0 -97 39t-40 96t40 97t97 40h361q66 0 112 -46t46 -111v-349q0 -135 -111 -200q-88 -53 -214 -98.5t-288 -45.5q-168 0 -306 55.5t-237.5 154t-154.5 233.5t-55 295z" />
    <glyph glyph-name="H" unicode="H" horiz-adv-x="1556" 
d="M172 145v1143q0 66 46 112t112 46t111.5 -46t45.5 -112v-422h582v422q0 66 46 112t112 46t111.5 -46t45.5 -112v-1143q0 -66 -46 -111.5t-111 -45.5q-66 0 -112 46t-46 111v430h-582v-430q0 -66 -46 -111.5t-111 -45.5q-66 0 -112 46t-46 111z" />
    <glyph glyph-name="I" unicode="I" horiz-adv-x="688" 
d="M186 145v1143q0 66 46.5 112t111.5 46q66 0 112 -46t46 -112v-1143q0 -66 -46 -111.5t-112 -45.5t-112 46t-46 111z" />
    <glyph glyph-name="J" unicode="J" horiz-adv-x="1155" 
d="M59 225q0 63 43 107.5t107 44.5q29 0 50.5 -8.5t43.5 -24.5q47 -35 92 -53.5t99 -18.5q92 0 144 56.5t52 181.5v778q0 66 46 112t112 46t112 -46t46 -112v-792q0 -129 -35 -223.5t-101 -159.5q-66 -66 -160.5 -99.5t-211.5 -33.5q-123 0 -217.5 35.5t-161.5 88.5
q-25 18 -42.5 51t-17.5 70z" />
    <glyph glyph-name="K" unicode="K" horiz-adv-x="1458" 
d="M172 145v1143q0 66 46 112t112 46t111.5 -46t45.5 -112v-481l582 577q29 29 60.5 45.5t72.5 16.5q66 0 106 -43t40 -103q0 -37 -15.5 -65.5t-42.5 -52.5l-403 -377l440 -553q18 -23 30.5 -49.5t12.5 -61.5q0 -66 -45 -109.5t-115 -43.5q-47 0 -76.5 20.5t-56.5 54.5
l-409 537l-181 -168v-287q0 -66 -46 -111.5t-111 -45.5q-66 0 -112 46t-46 111z" />
    <glyph glyph-name="L" unicode="L" horiz-adv-x="1267" 
d="M172 158v1130q0 66 46 112t112 46t111.5 -46t45.5 -112v-1001h584q59 0 101 -42t42 -102q0 -59 -42 -101t-101 -42h-741q-66 0 -112 46t-46 112z" />
    <glyph glyph-name="M" unicode="M" horiz-adv-x="1777" 
d="M172 141v1143q0 66 46 112t112 46h35q51 0 85.5 -23.5t57.5 -58.5l381 -621l383 623q49 80 141 80h35q66 0 112 -46t46 -112v-1139q0 -66 -46.5 -111.5t-111.5 -45.5q-66 0 -111 46t-45 111v715l-276 -426q-25 -37 -56.5 -58.5t-74.5 -21.5t-75 21.5t-56 58.5l-273 420
v-713q0 -66 -45 -109.5t-110 -43.5q-66 0 -110 44t-44 109z" />
    <glyph glyph-name="N" unicode="N" horiz-adv-x="1617" 
d="M172 143v1141q0 66 46 112t112 46h32q57 0 94.5 -25.5t69.5 -66.5l609 -799v739q0 66 45 111t110 45q66 0 111 -45t45 -111v-1140q0 -66 -46 -112t-112 -46h-10q-57 0 -94 25.5t-70 66.5l-631 827v-768q0 -66 -45 -110.5t-110 -44.5q-66 0 -111 45t-45 110z" />
    <glyph glyph-name="O" unicode="O" horiz-adv-x="1740" 
d="M109 713v4q0 154 57 288t158.5 235t242 159.5t305.5 58.5q166 0 305.5 -58.5t241 -157.5t157.5 -233.5t56 -287.5v-4q0 -154 -57 -288t-158.5 -235.5t-242 -160t-306.5 -58.5t-305 58.5t-240.5 158t-157.5 233.5t-56 288zM438 717q0 -92 32 -174t90 -143.5t137 -97.5
t175 -36q94 0 174 35t136.5 96.5t88.5 142.5t32 173v4q0 92 -32 174t-90.5 143.5t-138 97t-174.5 35.5q-96 0 -175 -34.5t-135 -96t-88 -142.5t-32 -173v-4z" />
    <glyph glyph-name="P" unicode="P" horiz-adv-x="1368" 
d="M172 145v1131q0 66 46 112t112 46h428q129 0 230.5 -36t172 -101.5t108.5 -156.5t38 -202v-4q0 -125 -45 -219t-124 -157.5t-184.5 -95.5t-226.5 -32h-240v-285q0 -66 -46 -111.5t-111 -45.5q-66 0 -112 46t-46 111zM487 711h250q119 0 184.5 62.5t65.5 154.5v4
q0 106 -68.5 161.5t-187.5 55.5h-244v-438z" />
    <glyph glyph-name="Q" unicode="Q" horiz-adv-x="1740" 
d="M109 713v4q0 154 57 288t158.5 235t242 159.5t305.5 58.5q166 0 305.5 -58.5t241 -157.5t157.5 -233.5t56 -287.5v-4q0 -115 -33.5 -218.5t-93.5 -193.5l62 -51q25 -23 41 -51.5t16 -67.5q0 -61 -43 -105t-104 -44q-33 0 -59.5 12t-45.5 31l-78 69q-92 -59 -198.5 -91
t-227.5 -32q-166 0 -305 58.5t-240.5 158t-157.5 233.5t-56 288zM438 717q0 -92 32 -174t90 -143.5t137 -97.5t175 -36q109 0 189 39l-150 127q-25 23 -41 51.5t-16 67.5q0 61 43 105t104 44q33 0 56.5 -10t48.5 -33l158 -141q39 90 39 197v4q0 92 -32 174t-90.5 143.5
t-138 97t-174.5 35.5q-96 0 -175 -34.5t-135 -96t-88 -142.5t-32 -173v-4z" />
    <glyph glyph-name="R" unicode="R" horiz-adv-x="1480" 
d="M172 145v1131q0 66 46 112t112 46h497q272 0 418 -146q123 -123 123 -327v-5q0 -170 -78 -276.5t-209 -159.5l219 -266q23 -29 37.5 -56.5t14.5 -64.5q0 -66 -46 -105.5t-104 -39.5q-53 0 -90 23.5t-65 58.5l-308 389h-252v-314q0 -66 -46 -111.5t-111 -45.5
q-66 0 -112 46t-46 111zM487 737h320q117 0 179.5 55.5t62.5 147.5v4q0 102 -65.5 153.5t-182.5 51.5h-314v-412z" />
    <glyph glyph-name="S" unicode="S" horiz-adv-x="1310" 
d="M84 270q0 61 43 103.5t104 42.5q31 0 52.5 -9.5t38.5 -19.5q82 -59 172 -94t194 -35q98 0 152.5 36t54.5 99v4q0 31 -11.5 54.5t-43 44t-88 41t-146.5 43.5q-109 27 -196.5 59.5t-149 80.5t-95.5 119.5t-34 178.5v4q0 98 37 177t103.5 136.5t158.5 88t203 30.5
q131 0 243.5 -32.5t210.5 -94.5q27 -16 48.5 -47t21.5 -78q0 -61 -43 -103t-104 -42q-41 0 -80 22q-78 47 -153 72t-148 25q-92 0 -138.5 -36t-46.5 -89v-4q0 -35 13.5 -60.5t48.5 -46t95.5 -39t152.5 -43.5q109 -29 193.5 -64.5t143 -86t88 -118t29.5 -161.5v-4
q0 -106 -39 -189t-108.5 -139.5t-165.5 -86t-213 -29.5q-141 0 -279.5 43t-259.5 129q-27 18 -43 49.5t-16 68.5z" />
    <glyph glyph-name="T" unicode="T" horiz-adv-x="1327" 
d="M57 1288q0 59 43 102.5t103 43.5h921q59 0 102.5 -43t43.5 -103q0 -59 -43 -102t-103 -43h-303v-998q0 -66 -46 -111.5t-111 -45.5q-66 0 -112 46t-46 111v998h-303q-59 0 -102.5 43t-43.5 102z" />
    <glyph glyph-name="U" unicode="U" horiz-adv-x="1548" 
d="M150 614v674q0 66 46 112t111 46q66 0 112 -46t46 -112v-665q0 -176 82 -265.5t227 -89.5t227 86t82 258v676q0 66 46.5 112t111.5 46q66 0 112 -46t46 -112v-663q0 -164 -44 -285t-126 -202t-199 -121t-260 -40q-289 0 -454.5 160t-165.5 477z" />
    <glyph glyph-name="V" unicode="V" horiz-adv-x="1486" 
d="M72 1290q0 66 46 111t111 45q61 0 101.5 -32t58.5 -79l359 -927l362 938q16 39 55 69.5t97 30.5q66 0 110.5 -43t44.5 -109q0 -18 -5 -36.5t-11 -32.5l-469 -1123q-25 -59 -69 -92t-109 -33h-21q-66 0 -109.5 33t-68.5 92l-465 1112q-8 18 -13 37t-5 39z" />
    <glyph glyph-name="W" unicode="W" horiz-adv-x="2248" 
d="M70 1292q0 66 48 110t113 44q55 0 96.5 -32t57.5 -81l285 -878l286 870q18 55 59.5 90t100.5 35h25q59 0 100 -34t59 -91l287 -870l285 878q16 47 54 80t97 33q66 0 111 -43t45 -109q0 -14 -4 -30.5t-8 -30.5l-402 -1127q-23 -59 -64.5 -94t-98.5 -35h-33q-57 0 -98 34
t-64 95l-283 822l-282 -822q-23 -61 -64 -95t-98 -34h-33q-57 0 -99 35t-65 94l-401 1127q-4 14 -8 29.5t-4 29.5z" />
    <glyph glyph-name="X" unicode="X" horiz-adv-x="1454" 
d="M94 133q0 35 12.5 63.5t34.5 57.5l387 475l-364 445q-18 23 -32.5 52t-14.5 64q0 66 44 111t111 45q51 0 84 -19.5t62 -58.5l313 -418l311 410q33 41 67 63.5t87 22.5t98 -39t45 -107q0 -35 -12 -63.5t-35 -56.5l-364 -447l385 -473q18 -23 32.5 -52.5t14.5 -64.5
q0 -66 -44 -110.5t-112 -44.5q-51 0 -84 19.5t-61 58.5l-336 440l-332 -432q-33 -41 -66.5 -63.5t-86.5 -22.5t-98.5 38.5t-45.5 106.5z" />
    <glyph glyph-name="Y" unicode="Y" horiz-adv-x="1589" 
d="M94 1266q-3 15 -3 30q0 44 27 84q36 54 97 66q14 2 28 2q47 0 89 -27q53 -35 63 -98q23 -119 61 -197.5t82 -129t89 -77t81.5 -37t60.5 -10.5h24q14 0 65 7.5t114.5 49.5t124 134t93.5 260q12 63 64 98q41 27 89 27q13 0 27 -2q63 -12 99 -66q27 -40 27 -84q0 -15 -3 -30
q-33 -170 -93.5 -288t-135 -195.5t-157.5 -121t-159 -63.5v-455q0 -66 -45 -110.5t-110 -44.5q-66 0 -111 45t-45 110v455q-76 20 -158 63.5t-156.5 121t-135 195.5t-93.5 288z" />
    <glyph glyph-name="Z" unicode="Z" horiz-adv-x="1449" 
d="M117 139v6q0 80 57 148l744 864h-637q-57 0 -98.5 40t-41.5 97t41 98.5t99 41.5h915q57 0 98 -41t41 -99v-6q0 -78 -57 -147l-743 -865h661q57 0 98 -40.5t41 -98.5q0 -57 -41 -97t-98 -40h-940q-57 0 -98 41t-41 98z" />
    <glyph glyph-name="bracketleft" unicode="[" horiz-adv-x="952" 
d="M170 -115v1397q0 63 44 107.5t108 44.5h399q51 0 87 -36t36 -87t-36 -86t-87 -35h-252v-1213h252q51 0 87 -34.5t36 -85.5t-36 -87t-87 -36h-399q-63 0 -107.5 44t-44.5 107z" />
    <glyph glyph-name="backslash" unicode="\" horiz-adv-x="1085" 
d="M35 1530q0 47 35.5 82t85.5 35q74 0 108 -72l801 -1673q4 -10 9 -27t5 -33q0 -47 -35.5 -81.5t-85.5 -34.5q-74 0 -108 71l-801 1673q-4 10 -9 26.5t-5 33.5z" />
    <glyph glyph-name="bracketright" unicode="]" horiz-adv-x="952" 
d="M109 -143q0 51 35.5 85.5t86.5 34.5h252v1213h-252q-51 0 -86.5 35t-35.5 86t35.5 87t86.5 36h400q63 0 107 -44t44 -108v-1397q0 -63 -44 -107t-107 -44h-400q-51 0 -86.5 35.5t-35.5 87.5z" />
    <glyph glyph-name="asciicircum" unicode="^" horiz-adv-x="1024" 
d="M156 1049q0 33 28 73l162 228q31 43 67 65.5t89 22.5h18q53 0 89 -22.5t67 -65.5l162 -228q29 -41 28 -73q0 -23 -20.5 -36.5t-48.5 -13.5q-55 0 -92 22.5t-91 92.5l-104 135l-104 -135q-53 -70 -91.5 -92.5t-89.5 -22.5q-29 0 -49 13.5t-20 36.5z" />
    <glyph glyph-name="underscore" unicode="_" horiz-adv-x="1228" 
d="M-123 -209q0 49 35 84t84 35h1237q49 0 84 -35t35 -84t-35 -84t-84 -35h-1237q-49 0 -84 35t-35 84z" />
    <glyph glyph-name="grave" unicode="`" horiz-adv-x="1024" 
d="M260 1466q0 18 16.5 35t42 30t56.5 21.5t59 8.5q39 0 67.5 -18.5t49.5 -51.5l113 -176q8 -12 14 -26.5t6 -28.5q0 -25 -21.5 -39.5t-56.5 -14.5q-53 0 -93 13.5t-85 54.5l-127 119q-18 16 -29.5 33.5t-11.5 39.5z" />
    <glyph glyph-name="a" unicode="a" horiz-adv-x="1212" 
d="M74 315v4q0 90 32.5 156t91 109t139.5 64.5t179 21.5q84 0 146.5 -12.5t121.5 -32.5v18q0 98 -59 149.5t-176 51.5q-66 0 -118 -8.5t-97 -22.5q-25 -8 -45 -8q-53 0 -91 37t-38 90q0 41 23.5 73.5t60.5 47.5q74 29 156.5 43t193.5 14q129 0 220 -31.5t151 -91.5
q61 -61 89.5 -150t28.5 -200v-500q0 -63 -44 -106t-107 -43q-68 0 -109 40t-41 89v2q-57 -63 -136.5 -101t-194.5 -38q-78 0 -146.5 21.5t-120 64.5t-81 105t-29.5 144zM375 328q0 -63 47 -98t123 -35q111 0 177 53t66 139v55q-41 18 -91 29.5t-107 11.5
q-100 0 -157.5 -38.5t-57.5 -112.5v-4z" />
    <glyph glyph-name="b" unicode="b" horiz-adv-x="1382" 
d="M139 143v1209q0 66 45 110.5t111 44.5t111 -45t45 -110v-412q57 78 138 128t204 50q96 0 186 -37t159.5 -109.5t111.5 -178t42 -242.5v-4q0 -137 -42 -242.5t-110.5 -178.5t-158.5 -109.5t-188 -36.5q-125 0 -206 49t-136 114v-2q0 -63 -45.5 -108t-110.5 -45
q-66 0 -111 45t-45 110zM446 547q0 -68 21.5 -124t57.5 -96t84.5 -61.5t103.5 -21.5t103 21.5t85 61.5t58.5 95t21.5 125v4q0 68 -21.5 124t-58.5 96t-85 61.5t-103 21.5t-103.5 -21.5t-84.5 -61.5t-57.5 -96.5t-21.5 -123.5v-4z" />
    <glyph glyph-name="c" unicode="c" horiz-adv-x="1169" 
d="M86 543v4q0 117 43 221t119 182t181.5 123t232.5 45q125 0 215 -31.5t159 -91.5q16 -12 32.5 -38.5t16.5 -67.5q0 -59 -40.5 -99t-100.5 -40q-31 0 -53.5 10t-36.5 20q-41 33 -87 51.5t-108 18.5q-59 0 -107 -23.5t-84 -64.5t-55.5 -95.5t-19.5 -115.5v-4
q0 -63 19.5 -118.5t56.5 -96.5t88 -64.5t115 -23.5q61 0 110 20.5t95 54.5q12 10 33.5 19.5t50.5 9.5q55 0 93 -39t38 -94q0 -31 -12.5 -55.5t-32.5 -42.5q-70 -63 -162.5 -102.5t-227.5 -39.5q-123 0 -228 45.5t-181 122t-119 180t-43 220.5z" />
    <glyph glyph-name="d" unicode="d" horiz-adv-x="1382" 
d="M90 547v4q0 137 42 242.5t110.5 178t159 109.5t188.5 37q125 0 206 -49t136 -115v398q0 66 45 110.5t110 44.5q66 0 111 -45t45 -110v-1209q0 -66 -45 -110.5t-111 -44.5t-110.5 45t-44.5 110v15q-57 -78 -138 -128t-204 -50q-96 0 -186.5 36.5t-160 109.5t-111.5 178.5
t-42 242.5zM401 547q0 -68 21.5 -124t58.5 -96t85 -61.5t104 -21.5q55 0 103 21.5t84 61.5t57.5 96t21.5 124v4q0 68 -21.5 124t-57.5 96t-84 61.5t-103 21.5t-103.5 -21.5t-85.5 -61.5t-58.5 -95t-21.5 -125v-4z" />
    <glyph glyph-name="e" unicode="e" horiz-adv-x="1255" 
d="M86 543v4q0 117 40 221t111.5 182t171 123t220.5 45q137 0 237.5 -50t165 -128t95 -171t30.5 -179q0 -68 -42 -109t-103 -41h-617q23 -106 93.5 -160.5t175.5 -54.5q66 0 120 19.5t101 54.5q16 12 33.5 18.5t42.5 6.5q53 0 86.5 -35t33.5 -88q0 -31 -12.5 -53.5
t-28.5 -38.5q-72 -61 -166 -97.5t-215 -36.5q-123 0 -228 41t-182 117t-120 179.5t-43 230.5zM391 635h469q-14 104 -73.5 168.5t-157.5 64.5t-158.5 -63.5t-79.5 -169.5z" />
    <glyph glyph-name="f" unicode="f" horiz-adv-x="782" 
d="M51 958q0 53 38 91t91 38h13v70q0 178 88 266q86 86 251 86q37 0 69 -2t58 -6q41 -6 74 -38.5t33 -86.5q0 -53 -37 -91t-90 -38h-27q-113 0 -112 -119v-43h135q53 0 91 -36.5t38 -90.5q0 -53 -38 -90t-91 -37h-131v-688q0 -66 -45 -110.5t-111 -44.5t-110.5 45t-44.5 110
v688h-13q-53 0 -91 37t-38 90z" />
    <glyph glyph-name="g" unicode="g" horiz-adv-x="1382" 
d="M90 602v4q0 123 41 218.5t108.5 161t155.5 99t183 33.5q127 0 208.5 -47t145.5 -117v2q0 63 45 108.5t110 45.5q66 0 111 -45t45 -111v-706q0 -293 -139 -432q-78 -78 -195.5 -113t-277.5 -35q-111 0 -207 18.5t-195 57.5q-41 16 -64.5 47t-23.5 74q0 53 37 90t90 37
q27 0 51 -10q68 -31 142 -48.5t162 -17.5q160 0 236.5 76t76.5 223v53q-70 -84 -152 -131t-206 -47q-96 0 -184.5 34t-156 99.5t-107.5 160.5t-40 218zM401 602q0 -115 76 -184.5t191 -69.5q57 0 106 18.5t85 52.5t56.5 81t20.5 102v4q0 55 -20.5 102.5t-56.5 81t-85 52
t-106 18.5t-105.5 -18.5t-84.5 -52t-56.5 -80.5t-20.5 -103v-4z" />
    <glyph glyph-name="h" unicode="h" 
d="M139 143v1209q0 66 45 110.5t111 44.5t111 -45t45 -110v-410q27 35 58.5 66.5t70 56.5t86 39t106.5 14q178 0 275.5 -108.5t97.5 -298.5v-568q0 -66 -45 -110.5t-111 -44.5t-110.5 45t-44.5 110v469q0 111 -49.5 167.5t-139.5 56.5t-142 -56.5t-52 -167.5v-469
q0 -66 -45.5 -110.5t-110.5 -44.5q-66 0 -111 45t-45 110z" />
    <glyph glyph-name="i" unicode="i" horiz-adv-x="618" 
d="M135 1356v4q0 68 50.5 106.5t123.5 38.5q74 0 124 -39t50 -106v-4q0 -68 -50 -108t-124 -40t-124 40t-50 108zM154 143v811q0 66 45 111t110 45q66 0 111 -45t45 -111v-811q0 -66 -45 -110.5t-111 -44.5t-110.5 45t-44.5 110z" />
    <glyph glyph-name="j" unicode="j" horiz-adv-x="618" 
d="M-45 -207q0 57 36 91t85 34h2q35 0 55.5 23.5t20.5 78.5v934q0 66 45 111t110 45q66 0 111 -45t45 -111v-936q0 -182 -89 -267t-243 -85h-4q-76 0 -125 31t-49 96zM135 1356v4q0 68 50.5 106.5t123.5 38.5q74 0 124 -39t50 -106v-4q0 -68 -50 -108t-124 -40t-124 40
t-50 108z" />
    <glyph glyph-name="k" unicode="k" horiz-adv-x="1204" 
d="M139 143v1209q0 66 45 110.5t111 44.5t111 -45t45 -110v-680l389 368q35 33 65.5 51.5t71.5 18.5q63 0 100 -43t37 -96q0 -41 -19.5 -73t-52.5 -62l-245 -211l293 -396q38 -52 38 -98q0 -65 -43 -104t-102 -39q-47 0 -76.5 16t-58.5 55l-273 375l-124 -112v-179
q0 -66 -45.5 -110.5t-110.5 -44.5q-66 0 -111 45t-45 110z" />
    <glyph glyph-name="l" unicode="l" horiz-adv-x="618" 
d="M154 143v1209q0 66 45 110.5t110 44.5q66 0 111 -45t45 -110v-1209q0 -66 -45 -110.5t-111 -44.5t-110.5 45t-44.5 110z" />
    <glyph glyph-name="m" unicode="m" horiz-adv-x="1945" 
d="M139 143v811q0 66 45 111t111 45t111 -45t45 -111v-12q27 35 58.5 66.5t70 56.5t87 39t107.5 14q109 0 187.5 -45t121.5 -129q72 86 160 130t201 44q174 0 272.5 -102.5t98.5 -300.5v-572q0 -66 -45.5 -110.5t-110.5 -44.5q-66 0 -111 45t-45 110v469q0 111 -47 167.5
t-135 56.5t-138 -56.5t-50 -167.5v-469q0 -66 -45.5 -110.5t-110.5 -44.5q-66 0 -111 45t-45 110v469q0 111 -47 167.5t-135 56.5t-138 -56.5t-50 -167.5v-469q0 -66 -45.5 -110.5t-110.5 -44.5q-66 0 -111 45t-45 110z" />
    <glyph glyph-name="n" unicode="n" 
d="M139 143v811q0 66 45 111t111 45t111 -45t45 -111v-12q27 35 58.5 66.5t70 56.5t86 39t106.5 14q178 0 275.5 -108.5t97.5 -298.5v-568q0 -66 -45 -110.5t-111 -44.5t-110.5 45t-44.5 110v469q0 111 -49.5 167.5t-139.5 56.5t-142 -56.5t-52 -167.5v-469
q0 -66 -45.5 -110.5t-110.5 -44.5q-66 0 -111 45t-45 110z" />
    <glyph glyph-name="o" unicode="o" horiz-adv-x="1359" 
d="M86 543v4q0 119 45 222t125 181t188.5 123t237.5 45q127 0 235.5 -44t187.5 -120.5t124 -180t45 -222.5v-4q0 -119 -45 -222.5t-125 -181t-188.5 -123t-237.5 -45.5q-127 0 -235.5 44t-187.5 121t-124 180.5t-45 222.5zM393 547q0 -61 20.5 -115.5t59.5 -96.5t91 -66.5
t118 -24.5q68 0 120 23.5t89 64.5t56.5 95t19.5 116v4q0 61 -20.5 115.5t-59.5 96.5t-92.5 66.5t-116.5 24.5q-68 0 -120 -23.5t-89 -64.5t-56.5 -95.5t-19.5 -115.5v-4z" />
    <glyph glyph-name="p" unicode="p" horiz-adv-x="1382" 
d="M139 -184v1138q0 66 45 111t111 45t111 -45t45 -111v-14q57 78 138 128t204 50q96 0 186 -37t159.5 -109.5t111.5 -178t42 -242.5v-4q0 -137 -42 -242.5t-110.5 -178.5t-158.5 -109.5t-188 -36.5q-125 0 -206 49t-136 114v-327q0 -66 -45.5 -111t-110.5 -45
q-66 0 -111 45t-45 111zM446 547q0 -68 21.5 -124t57.5 -96t84.5 -61.5t103.5 -21.5t103 21.5t85 61.5t58.5 95t21.5 125v4q0 68 -21.5 124t-58.5 96t-85 61.5t-103 21.5t-103.5 -21.5t-84.5 -61.5t-57.5 -96.5t-21.5 -123.5v-4z" />
    <glyph glyph-name="q" unicode="q" horiz-adv-x="1382" 
d="M90 547v4q0 137 42 242.5t110.5 178t159 109.5t188.5 37q125 0 206 -49t136 -115v2q0 63 45 108.5t110 45.5q66 0 111 -45t45 -111v-1138q0 -66 -45 -111t-111 -45t-110.5 45t-44.5 111v342q-57 -78 -138 -128t-204 -50q-96 0 -186.5 36.5t-160 109.5t-111.5 178.5
t-42 242.5zM401 547q0 -68 21.5 -124t58.5 -96t85 -61.5t104 -21.5q55 0 103 21.5t84 61.5t57.5 96t21.5 124v4q0 68 -21.5 124t-57.5 96t-84 61.5t-103 21.5t-103.5 -21.5t-85.5 -61.5t-58.5 -95t-21.5 -125v-4z" />
    <glyph glyph-name="r" unicode="r" horiz-adv-x="856" 
d="M139 143v811q0 66 45 111t111 45t111 -45t45 -111v-49q35 80 88 142.5t123 62.5q72 0 111.5 -43t39.5 -109q0 -61 -35 -98t-82 -47q-119 -29 -182 -121t-63 -258v-291q0 -66 -45.5 -110.5t-110.5 -44.5q-66 0 -111 45t-45 110z" />
    <glyph glyph-name="s" unicode="s" horiz-adv-x="1028" 
d="M51 211q0 53 35 88t88 35q35 0 62 -17q78 -49 154.5 -73.5t141.5 -24.5q68 0 100 22.5t32 59.5v4q0 25 -18.5 43.5t-50.5 31.5t-73 25.5t-86 26.5q-57 16 -115.5 40t-105.5 61.5t-76.5 93t-29.5 135.5v4q0 84 31.5 148.5t86 109.5t127 67.5t156.5 22.5q86 0 173 -21.5
t167 -62.5q35 -16 54.5 -46t19.5 -71q0 -53 -36 -87.5t-89 -34.5q-29 0 -58 14q-66 33 -127 51t-110 18q-57 0 -86 -21.5t-29 -53.5v-4q0 -23 18.5 -40.5t49 -32.5t70.5 -29.5t85 -28.5q57 -18 116.5 -44t107 -63t78 -90t30.5 -129v-4q0 -92 -31.5 -158.5t-89 -109.5
t-134.5 -64.5t-165 -21.5q-102 0 -207.5 29.5t-205.5 94.5q-25 16 -42.5 43t-17.5 64z" />
    <glyph glyph-name="t" unicode="t" horiz-adv-x="849" 
d="M47 965q0 55 39 94t94 39h10v137q0 66 45.5 111t110.5 45q66 0 111 -45.5t45 -110.5v-137h137q55 0 94 -39t39 -94t-39 -94.5t-94 -39.5h-137v-469q0 -106 100 -106q8 0 20.5 1t16.5 1q53 0 91 -38t38 -91q0 -41 -23.5 -72.5t-56.5 -44.5q-43 -16 -85 -23t-93 -7
q-72 0 -130 15t-100 54t-66 101.5t-24 158.5v520h-10q-55 0 -94 39t-39 95z" />
    <glyph glyph-name="u" unicode="u" 
d="M131 387v567q0 66 45 111t111 45t110.5 -45t44.5 -111v-469q0 -111 49.5 -167t139.5 -56t142 56.5t52 166.5v469q0 66 45 111t111 45t111 -45t45 -111v-811q0 -66 -45 -110.5t-111 -44.5t-111 45t-45 110v13q-27 -35 -58.5 -67t-70.5 -56.5t-86 -38.5t-106 -14
q-178 0 -275.5 108.5t-97.5 298.5z" />
    <glyph glyph-name="v" unicode="v" horiz-adv-x="1204" 
d="M66 965q0 55 44 100t107 45t99 -31.5t53 -79.5l235 -637l240 642q16 41 50 73.5t95 32.5t105.5 -42t44.5 -105q0 -20 -6.5 -42t-10.5 -32l-336 -776q-27 -59 -69.5 -97.5t-106.5 -38.5h-16q-63 0 -106.5 37t-69.5 99l-336 776q-6 16 -11 34.5t-5 41.5z" />
    <glyph glyph-name="w" unicode="w" horiz-adv-x="1738" 
d="M59 969q0 53 40 97t110 44q59 0 97 -34t54 -87l168 -557l172 555q16 55 58.5 90t101.5 35h19q59 0 101 -35t58 -90l174 -557l172 561q16 49 52.5 84t97.5 35q66 0 105.5 -42t39.5 -101q0 -16 -3 -35t-7 -29l-276 -784q-25 -72 -70 -105.5t-102 -33.5h-11q-57 0 -101 32.5
t-67 100.5l-174 553l-176 -553q-23 -68 -66.5 -100.5t-101.5 -32.5h-10q-57 0 -102 33.5t-70 105.5l-268 774q-4 14 -9.5 34.5t-5.5 41.5z" />
    <glyph glyph-name="x" unicode="x" horiz-adv-x="1175" 
d="M82 119q0 33 11 58.5t32 47.5l281 332l-256 295q-51 59 -52 119q0 66 42 104.5t102 38.5q47 0 80.5 -20.5t64.5 -59.5l203 -270l207 270q29 35 61.5 57.5t73.5 22.5q61 0 103 -38t42 -97q0 -33 -12 -58.5t-31 -48.5l-266 -311l274 -315q51 -59 52 -119q0 -66 -42 -104.5
t-102 -38.5q-47 0 -80.5 20.5t-64.5 58.5l-221 291l-222 -291q-29 -35 -61.5 -57t-73.5 -22q-61 0 -103 38t-42 97z" />
    <glyph glyph-name="y" unicode="y" horiz-adv-x="1200" 
d="M68 961q0 66 44 107.5t109 41.5q59 0 94 -30.5t56 -86.5l237 -639l230 637q18 49 54 84t95 35t103.5 -41t44.5 -102q0 -18 -5.5 -41t-9.5 -33l-383 -920q-35 -84 -70.5 -142t-78.5 -95t-97 -53.5t-124 -16.5q-53 0 -92 7.5t-78 21.5q-35 12 -67 42t-32 87t38 92t85 35
q18 0 29.5 -2t21.5 -6q20 -6 35 -9.5t31 -3.5q41 0 64.5 12.5t46.5 53.5l10 24l-375 869q-6 16 -11 35.5t-5 36.5z" />
    <glyph glyph-name="z" unicode="z" horiz-adv-x="1153" 
d="M90 125v6q0 45 16.5 78t53.5 74l510 563h-434q-53 0 -90 36t-37 89t36.5 90t90.5 37h682q66 0 108.5 -35t42.5 -90v-6q0 -45 -16.5 -78t-53.5 -74l-512 -563h455q53 0 90 -37t37 -90t-37 -89t-90 -36h-700q-66 0 -109 35t-43 90z" />
    <glyph glyph-name="braceleft" unicode="{" horiz-adv-x="1003" 
d="M86 588q0 53 34 86t93 37q82 6 124 51t42 156q0 12 -1 31.5t-2 40t-2 39t-1 30.5q0 74 19.5 133t65.5 107.5t121.5 85t190.5 63.5q59 14 101 -17.5t42 -89.5q0 -47 -25.5 -71.5t-47.5 -32.5q-59 -20 -94 -43t-55.5 -48.5t-27 -58t-6.5 -73.5q0 -31 3.5 -75t3.5 -77
q0 -113 -54.5 -176t-158.5 -98q104 -35 158.5 -98.5t54.5 -176.5q0 -33 -3.5 -76.5t-3.5 -74.5q0 -41 6.5 -74t27 -58.5t55 -48t94.5 -42.5q23 -8 48 -33t25 -72q0 -57 -42 -88.5t-101 -17.5q-115 27 -190.5 63.5t-121.5 84.5t-65.5 107.5t-19.5 133.5q0 12 1 30.5t2 39
t2 40t1 31.5q0 111 -42 156t-124 51q-59 4 -93 37t-34 86z" />
    <glyph glyph-name="bar" unicode="|" horiz-adv-x="716" 
d="M236 -152v1676q0 51 35.5 87t86.5 36t87 -36t36 -87v-1676q0 -51 -35.5 -86.5t-87.5 -35.5q-51 0 -86.5 35.5t-35.5 86.5z" />
    <glyph glyph-name="braceright" unicode="}" horiz-adv-x="1003" 
d="M90 -166q0 47 25.5 71.5t48.5 33.5q57 20 93 42.5t56.5 48t26.5 58.5t6 74q0 31 -3 75t-3 76q0 113 54.5 176.5t158.5 98.5q-104 35 -158.5 98.5t-54.5 175.5q0 33 3 77t3 75q0 41 -6 73.5t-26.5 58t-56.5 48.5t-93 43q-23 8 -48.5 32.5t-25.5 71.5q0 57 42 89t101 18
q115 -27 191 -63.5t122 -85t65.5 -107.5t19.5 -133q0 -12 -1 -30.5t-2 -39t-2 -40t-1 -31.5q0 -111 42 -156t124 -51q59 -4 93 -37t34 -86t-34 -86t-93 -37q-82 -6 -124 -51t-42 -156q0 -12 1 -31.5t2 -40t2 -39t1 -30.5q0 -74 -19.5 -133.5t-65.5 -107.5t-122 -85t-191 -63
q-59 -14 -101 17.5t-42 88.5z" />
    <glyph glyph-name="asciitilde" unicode="~" horiz-adv-x="1044" 
d="M115 537q0 10 3 26.5t7 28.5q35 90 85 145.5t144 55.5q47 0 91 -12.5t83 -28t72 -27.5t62 -12q37 0 57 14t39 45q12 20 31.5 33.5t48.5 13.5q37 0 64.5 -25.5t27.5 -58.5q0 -10 -3 -26.5t-7 -28.5q-35 -90 -85.5 -145.5t-144.5 -55.5q-47 0 -91 12.5t-83 28t-72.5 27.5
t-60.5 12q-37 0 -57.5 -14t-38.5 -45q-12 -20 -31.5 -33.5t-48.5 -13.5q-37 0 -64.5 25.5t-27.5 58.5z" />
    <glyph glyph-name="uni00A0" unicode="&#xa0;" horiz-adv-x="614" 
 />
    <glyph glyph-name="exclamdown" unicode="&#xa1;" horiz-adv-x="663" 
d="M150 98l88 770q4 41 29.5 65.5t64.5 24.5t64.5 -24.5t29.5 -65.5l88 -770q4 -45 -18.5 -74.5t-63.5 -29.5h-201q-41 0 -63.5 29.5t-17.5 74.5zM154 1268v4q0 74 50 124t128 50t128 -50t50 -124v-4q0 -74 -50 -124t-128 -50t-128 50t-50 124z" />
    <glyph glyph-name="cent" unicode="&#xa2;" horiz-adv-x="1189" 
d="M96 723v4q0 119 43 222.5t120 181t181.5 122.5t229.5 45h12l14 74q8 37 35 61.5t70 24.5q47 0 78.5 -37t21.5 -90l-14 -65q47 -16 89 -41t77 -54q16 -14 30.5 -39.5t14.5 -62.5q0 -57 -40 -97t-97 -40q-27 0 -48.5 9t-35.5 20q-23 16 -52 32l-112 -567q49 6 92 25.5
t80 48.5q14 10 32.5 18t49.5 8q51 0 88 -37.5t37 -91.5q0 -57 -41 -94q-70 -63 -163 -104t-216 -43l-19 -95q-8 -37 -34.5 -61.5t-69.5 -24.5q-47 0 -79 37t-21 90l16 86q-82 29 -149.5 81.5t-116.5 122t-76 154.5t-27 177zM397 727q0 -86 34 -155.5t97 -108.5l111 565
q-53 -4 -97 -28.5t-77 -64.5t-50.5 -93.5t-17.5 -110.5v-4z" />
    <glyph glyph-name="sterling" unicode="&#xa3;" horiz-adv-x="1318" 
d="M111 115q0 39 22.5 70.5t63.5 45.5l82 27v289h-37q-53 0 -92 38t-39 91t38.5 92t92.5 39h37v166q0 111 31.5 201t90.5 149q63 63 153.5 97t209.5 34q137 0 231.5 -43t161.5 -113q23 -23 36 -48t13 -64q0 -66 -45 -110t-110 -44q-41 0 -69 15.5t-44 31.5q-41 41 -80 61.5
t-90 20.5q-72 0 -117 -45q-25 -25 -39 -63.5t-14 -87.5v-158h348q53 0 92 -39t39 -92t-39 -91t-92 -38h-348v-275h498q57 0 97 -39.5t40 -97.5q0 -57 -40 -96t-97 -39h-858q-57 0 -92 34t-35 81z" />
    <glyph glyph-name="yen" unicode="&#xa5;" horiz-adv-x="1558" 
d="M84 1264q-12 61 23.5 114.5t97.5 65.5q63 10 116.5 -25t63.5 -98q23 -119 60.5 -198t81.5 -129t89.5 -76.5t82 -37t59.5 -10.5h24q14 0 65.5 7.5t115 49.5t124 134t93.5 260q12 63 64.5 98t115.5 25q63 -12 99 -65.5t24 -114.5q-45 -231 -139.5 -368.5t-204.5 -209.5h71
q47 0 79 -31.5t32 -79.5q0 -47 -32 -78.5t-79 -31.5h-272v-98h272q47 0 79 -32t32 -79t-32 -79t-79 -32h-272v-4q0 -66 -45 -110.5t-111 -44.5t-110.5 45t-44.5 110v4h-277q-47 0 -78.5 32t-31.5 79t31.5 79t78.5 32h277v98h-277q-47 0 -78.5 31.5t-31.5 78.5t31.5 79
t78.5 32h74q-55 37 -106.5 88t-96.5 121t-81 161t-56 208z" />
    <glyph glyph-name="section" unicode="&#xa7;" horiz-adv-x="1294" 
d="M113 702v5q0 51 14 90t40 67.5t58.5 48t69.5 33.5q-45 35 -65.5 84t-20.5 103v4q0 147 110.5 232t309.5 85q135 0 235.5 -36t186.5 -103q16 -14 29.5 -38t13.5 -56q0 -51 -35 -86t-86 -35q-25 0 -44.5 7t-29.5 17q-66 53 -128 78t-134 25q-66 0 -100.5 -19.5t-34.5 -54.5
v-4q0 -16 8 -29.5t31.5 -27t67.5 -26.5t118 -30q121 -27 207 -55.5t141 -64t81 -80.5t26 -105v-4q0 -102 -54.5 -156.5t-128.5 -83.5q41 -33 63.5 -83t22.5 -103v-4q0 -145 -110 -231t-309 -86q-135 0 -235.5 35.5t-186.5 103.5q-16 14 -29.5 37.5t-13.5 56.5q0 51 34.5 86
t86.5 35q25 0 44 -7.5t29 -17.5q66 -53 128.5 -77.5t133.5 -24.5q66 0 101 20.5t35 53.5v4q0 18 -10.5 32.5t-35 26.5t-68.5 25.5t-112 27.5q-121 27 -207 56.5t-141 65.5t-80.5 81t-25.5 102zM385 748q0 -41 50 -67t157 -52q80 -20 126 -28.5t79 -8.5q47 0 79.5 23.5
t32.5 66.5v4q0 41 -50 66.5t-157 52.5q-80 20 -126 28.5t-78 8.5q-47 0 -80 -23.5t-33 -66.5v-4z" />
    <glyph glyph-name="dieresis" unicode="&#xa8;" horiz-adv-x="1024" 
d="M131 1356v4q0 66 48 107.5t114 41.5t114 -42t48 -107v-4q0 -66 -48.5 -108t-113.5 -42q-66 0 -114 42t-48 108zM569 1356v4q0 66 48 107.5t114 41.5t114 -42t48 -107v-4q0 -66 -48 -108t-114 -42t-114 42t-48 108z" />
    <glyph glyph-name="copyright" unicode="&#xa9;" horiz-adv-x="1699" 
d="M109 713v4q0 152 57 286t157.5 235t236.5 160.5t292 59.5t291 -58.5t234.5 -158.5t156.5 -234.5t57 -285.5v-4q0 -152 -57 -286t-157.5 -235.5t-236.5 -161t-292 -59.5t-291 58.5t-234.5 159t-156.5 234.5t-57 286zM195 713q0 -135 49 -255t137 -209t208 -140.5
t259 -51.5q141 0 261 52.5t208 141.5t138 210t50 256v4q0 135 -50 255t-137 209t-207 140t-259 51q-141 0 -261 -52t-208 -141t-138 -210t-50 -256v-4zM455 723v4q0 84 29.5 157.5t84 129t130 88.5t165.5 33q94 0 155.5 -22.5t110.5 -59.5q16 -12 27.5 -30.5t11.5 -43.5
q0 -37 -25.5 -62.5t-60.5 -25.5q-29 0 -57 22q-33 25 -74 41.5t-88 16.5q-49 0 -90 -19.5t-71.5 -52.5t-47 -77t-16.5 -93v-4q0 -49 16.5 -93t46 -77t71.5 -52.5t91 -19.5q53 0 94 17.5t80 50.5q10 8 22.5 14t31.5 6q35 0 59.5 -24.5t24.5 -59.5q0 -20 -8.5 -34.5
t-18.5 -24.5q-57 -51 -124 -80t-167 -29q-86 0 -160.5 32t-128 86.5t-84 128t-30.5 157.5z" />
    <glyph glyph-name="ordfeminine" unicode="&#xaa;" horiz-adv-x="798" 
d="M88 635q0 29 19.5 48t48.5 19h458q29 0 48.5 -19t19.5 -48t-19.5 -48.5t-48.5 -19.5h-458q-29 0 -48.5 19.5t-19.5 48.5zM106 1001v5q0 98 68 145t176 47q45 0 80 -7t68 -17v10q0 53 -33 81.5t-98 28.5q-35 0 -58.5 -4t-46.5 -10q-18 -6 -35 -6q-29 0 -49 20.5t-20 48.5
q0 49 45 66q41 16 85 23.5t103 7.5q137 0 205 -68q35 -35 50.5 -84t15.5 -108v-279q0 -35 -25 -58.5t-59 -23.5q-33 0 -57.5 20.5t-24.5 53.5v2q-31 -35 -75.5 -56.5t-107.5 -21.5q-86 0 -146.5 47t-60.5 137zM272 1010q0 -35 26 -54.5t67 -19.5q59 0 97 29.5t38 76.5v31
q-23 10 -50.5 16.5t-60.5 6.5q-53 0 -85 -20.5t-32 -61.5v-4z" />
    <glyph glyph-name="guillemotleft" unicode="&#xab;" horiz-adv-x="1320" 
d="M102 549q0 25 9.5 44t25.5 40l248 317q20 27 51 44.5t66 17.5q53 0 88 -38t35 -91q0 -23 -10.5 -45.5t-24.5 -38.5l-199 -248l205 -256q31 -41 31 -82q0 -53 -37 -91t-90 -38q-35 0 -62.5 15.5t-44.5 37.5l-256 328q-16 20 -25.5 39.5t-9.5 44.5zM659 549q0 25 9.5 44
t25.5 40l248 317q20 27 51 44.5t66 17.5q53 0 88 -38t35 -91q0 -23 -10.5 -45.5t-24.5 -38.5l-199 -248l205 -256q31 -41 31 -82q0 -53 -37 -91t-90 -38q-35 0 -62.5 15.5t-44.5 37.5l-256 328q-16 20 -25.5 39.5t-9.5 44.5z" />
    <glyph glyph-name="uni00AD" unicode="&#xad;" horiz-adv-x="835" 
d="M90 635q0 61 44 105t106 44h356q61 0 105 -44t44 -105t-44 -105.5t-105 -44.5h-356q-61 0 -105.5 44t-44.5 106z" />
    <glyph glyph-name="registered" unicode="&#xae;" horiz-adv-x="753" 
d="M20 1094v2q0 74 28 138t76 113.5t113.5 78t139.5 28.5q76 0 140.5 -28.5t112.5 -77t75.5 -113t27.5 -137.5v-2q0 -74 -27.5 -138.5t-75.5 -113.5t-113.5 -78t-139.5 -29q-76 0 -140.5 29t-112.5 77t-76 112.5t-28 138.5zM61 1094q0 -66 24 -123.5t67 -100.5t100 -68.5
t125 -25.5t125 25.5t99 68.5t66.5 101.5t24.5 124.5v2q0 66 -23.5 123t-66.5 100t-100.5 68.5t-124.5 25.5q-68 0 -125 -25.5t-99 -68.5t-67 -101.5t-25 -123.5v-2zM221 958v279q0 23 15.5 38t37.5 15h127q72 0 115 -31.5t43 -97.5q0 -80 -70 -112l48 -56q14 -16 14 -37
q0 -23 -15.5 -37t-37.5 -14q-25 0 -41 21l-80 100h-49v-68q0 -23 -15.5 -38t-38.5 -15t-38 15.5t-15 37.5zM328 1110h67q57 0 58 45q0 45 -58 45h-67v-90z" />
    <glyph glyph-name="macron" unicode="&#xaf;" horiz-adv-x="1024" 
d="M131 1335q0 45 32 77t77 32h544q45 0 77 -32t32 -77t-32 -75.5t-77 -30.5h-544q-45 0 -77 30.5t-32 75.5z" />
    <glyph glyph-name="degree" unicode="&#xb0;" horiz-adv-x="983" 
d="M137 1098v4q0 70 29 132t78 109.5t113.5 75t134.5 27.5t134 -27.5t113 -75t78 -110t29 -131.5v-4q0 -70 -29 -132.5t-78 -109.5t-113 -74.5t-134 -27.5t-134.5 27.5t-113.5 74.5t-78 109.5t-29 132.5zM303 1098q0 -78 53.5 -134.5t135.5 -56.5t135 56.5t53 134.5v4
q0 78 -53.5 134t-134.5 56q-82 0 -135.5 -56t-53.5 -134v-4z" />
    <glyph glyph-name="plusminus" unicode="&#xb1;" horiz-adv-x="1310" 
d="M137 129q0 53 38 91t91 38h778q53 0 91.5 -38t38.5 -91t-38 -91t-92 -38h-778q-53 0 -91 38t-38 91zM137 911q0 55 40 95.5t95 40.5l246 -3l-2 236q0 59 40 99t99 40t99.5 -40t40.5 -99l-2 -236l245 3q55 0 95.5 -40t40.5 -96q0 -55 -40 -95t-96 -40l-245 2l2 -235
q0 -59 -40 -99.5t-100 -40.5q-59 0 -99 40t-40 100l2 235l-246 -2q-55 0 -95 40t-40 95z" />
    <glyph glyph-name="acute" unicode="&#xb4;" horiz-adv-x="1024" 
d="M340 1260q0 14 6 28.5t14 26.5l113 176q20 33 49 51.5t68 18.5q29 0 59.5 -8.5t56 -21.5t42 -29.5t16.5 -35.5q0 -23 -11.5 -40t-29.5 -33l-127 -119q-45 -41 -85 -54.5t-93 -13.5q-35 0 -56.5 14.5t-21.5 39.5z" />
    <glyph glyph-name="paragraph" unicode="&#xb6;" horiz-adv-x="1208" 
d="M72 948v4q0 113 41 202t115.5 151.5t178 95.5t230.5 33h242q66 0 111.5 -46.5t45.5 -111.5v-1131q0 -66 -46 -111.5t-111 -45.5q-66 0 -112 46t-46 111v326h-49q-129 0 -238.5 29.5t-190.5 90t-126 149.5t-45 208z" />
    <glyph glyph-name="periodcentered" unicode="&#xb7;" horiz-adv-x="585" 
d="M115 633v4q0 74 52 124t126 50t126 -50t52 -124v-4q0 -74 -52 -124t-126 -50t-126 50t-52 124z" />
    <glyph glyph-name="cedilla" unicode="&#xb8;" horiz-adv-x="1024" 
d="M266 -236q0 14 5 28.5t14 25.5l139 202h229l-121 -296q-14 -35 -34.5 -50.5t-55.5 -15.5q-23 0 -52.5 9t-57 24.5t-47 35t-19.5 37.5z" />
    <glyph glyph-name="ordmasculine" unicode="&#xba;" horiz-adv-x="798" 
d="M84 1126v4q0 66 24.5 123.5t66.5 99.5t100.5 66.5t125.5 24.5q68 0 125.5 -24.5t99.5 -66.5t65.5 -98.5t23.5 -121.5v-5q0 -66 -24.5 -123t-66.5 -99t-100.5 -66.5t-126.5 -24.5t-125 24.5t-99 66.5t-65.5 98.5t-23.5 121.5zM92 635q0 29 19.5 48t48.5 19h479
q29 0 48.5 -19t19.5 -48t-19.5 -48.5t-48.5 -19.5h-479q-29 0 -48.5 19.5t-19.5 48.5zM252 1128q0 -66 40.5 -115.5t108.5 -49.5t107 49t39 114v4q0 66 -41 116t-109 50t-106.5 -49t-38.5 -114v-5z" />
    <glyph glyph-name="guillemotright" unicode="&#xbb;" horiz-adv-x="1320" 
d="M137 883q0 53 37 91t90 38q35 0 62.5 -15.5t44.5 -38.5l256 -327q16 -20 25.5 -40t9.5 -44q0 -25 -9.5 -44.5t-25.5 -39.5l-248 -318q-20 -27 -51 -44t-66 -17q-53 0 -88 38t-35 91q0 23 10.5 45.5t24.5 38.5l199 248l-205 256q-31 39 -31 82zM694 883q0 53 37 91t90 38
q35 0 62.5 -15.5t44.5 -38.5l256 -327q16 -20 25.5 -40t9.5 -44q0 -25 -9.5 -44.5t-25.5 -39.5l-248 -318q-20 -27 -51 -44t-66 -17q-53 0 -88 38t-35 91q0 23 10.5 45.5t24.5 38.5l199 248l-205 256q-31 39 -31 82z" />
    <glyph glyph-name="questiondown" unicode="&#xbf;" horiz-adv-x="1114" 
d="M76 406v4q0 98 31.5 167.5t86 118.5t128 79t157.5 46l6 37q6 41 36 70.5t75 29.5h16q45 0 75 -29.5t36 -70.5l20 -139q8 -51 -18.5 -84t-75.5 -39q-135 -16 -197.5 -59t-62.5 -119v-4q0 -70 49 -108t140 -38q129 0 237 82q18 14 42 23.5t50 9.5q59 0 101.5 -42t42.5 -101
q0 -29 -12.5 -58.5t-41.5 -52.5q-82 -68 -186 -107.5t-240 -39.5q-111 0 -201.5 27.5t-156.5 81.5t-101.5 133t-35.5 182zM434 1268v4q0 74 50.5 124t127.5 50q78 0 128.5 -50t50.5 -124v-4q0 -74 -50.5 -124t-128.5 -50t-128 50t-50 124z" />
    <glyph glyph-name="Agrave" unicode="&#xc0;" horiz-adv-x="1568" 
d="M74 135q0 16 5 33.5t13 34.5l500 1128q27 59 73 92t111 33h19q66 0 110.5 -32.5t71.5 -92.5l500 -1128q16 -37 16 -64q0 -63 -43 -107t-107 -44q-55 0 -92 29.5t-59 78.5l-96 226h-631l-100 -236q-20 -47 -58.5 -72.5t-87.5 -25.5q-61 0 -103 43t-42 104zM444 1815
q0 18 16.5 34.5t42 29.5t56.5 21.5t59 8.5q39 0 68 -18.5t49 -51.5l113 -176q8 -12 14 -26.5t6 -28.5q0 -25 -21 -39.5t-56 -14.5q-53 0 -93.5 13.5t-85.5 54.5l-127 119q-18 16 -29.5 33.5t-11.5 40.5zM582 600h397l-199 473z" />
    <glyph glyph-name="Aacute" unicode="&#xc1;" horiz-adv-x="1568" 
d="M74 135q0 16 5 33.5t13 34.5l500 1128q27 59 73 92t111 33h19q66 0 110.5 -32.5t71.5 -92.5l500 -1128q16 -37 16 -64q0 -63 -43 -107t-107 -44q-55 0 -92 29.5t-59 78.5l-96 226h-631l-100 -236q-20 -47 -58.5 -72.5t-87.5 -25.5q-61 0 -103 43t-42 104zM582 600h397
l-199 473zM696 1608q0 14 6.5 28.5t14.5 26.5l112 176q20 33 49 51.5t68 18.5q29 0 59.5 -8.5t56 -21.5t42 -29.5t16.5 -34.5q0 -23 -11 -40.5t-30 -33.5l-127 -119q-45 -41 -85 -54.5t-93 -13.5q-35 0 -56.5 14.5t-21.5 39.5z" />
    <glyph glyph-name="Acircumflex" unicode="&#xc2;" horiz-adv-x="1568" 
d="M74 135q0 16 5 33.5t13 34.5l500 1128q27 59 73 92t111 33h19q66 0 110.5 -32.5t71.5 -92.5l500 -1128q16 -37 16 -64q0 -63 -43 -107t-107 -44q-55 0 -92 29.5t-59 78.5l-96 226h-631l-100 -236q-20 -47 -58.5 -72.5t-87.5 -25.5q-61 0 -103 43t-42 104zM428 1604
q0 14 10.5 29.5t20.5 29.5l129 166q27 33 59.5 51t85.5 18h98q53 0 86 -18t60 -51l129 -166q10 -14 20.5 -29.5t10.5 -29.5q0 -25 -21.5 -37.5t-50.5 -12.5q-53 0 -95 13.5t-93 54.5l-97 80l-96 -80q-51 -41 -93 -54.5t-95 -13.5q-29 0 -48.5 12.5t-19.5 37.5zM582 600h397
l-199 473z" />
    <glyph glyph-name="Atilde" unicode="&#xc3;" horiz-adv-x="1568" 
d="M74 135q0 16 5 33.5t13 34.5l500 1128q27 59 73 92t111 33h19q66 0 110.5 -32.5t71.5 -92.5l500 -1128q16 -37 16 -64q0 -63 -43 -107t-107 -44q-55 0 -92 29.5t-59 78.5l-96 226h-631l-100 -236q-20 -47 -58.5 -72.5t-87.5 -25.5q-61 0 -103 43t-42 104zM385 1624
q0 10 3 26.5t7 28.5q35 90 85 145.5t145 55.5q47 0 91 -12.5t83 -27.5l71.5 -27.5t61.5 -12.5q37 0 57.5 14.5t38.5 45.5q12 20 31.5 33.5t48.5 13.5q37 0 64.5 -26t27.5 -58q0 -10 -3 -26.5t-7 -29.5q-35 -90 -85 -145t-144 -55q-47 0 -91.5 12t-83 27.5t-72.5 28t-61 12.5
q-37 0 -57.5 -14.5t-38.5 -45.5q-12 -20 -31.5 -33.5t-48.5 -13.5q-37 0 -64.5 25.5t-27.5 58.5zM582 600h397l-199 473z" />
    <glyph glyph-name="Adieresis" unicode="&#xc4;" horiz-adv-x="1568" 
d="M74 135q0 16 5 33.5t13 34.5l500 1128q27 59 73 92t111 33h19q66 0 110.5 -32.5t71.5 -92.5l500 -1128q16 -37 16 -64q0 -63 -43 -107t-107 -44q-55 0 -92 29.5t-59 78.5l-96 226h-631l-100 -236q-20 -47 -58.5 -72.5t-87.5 -25.5q-61 0 -103 43t-42 104zM401 1704v4
q0 66 48 108t114 42t114 -42t48 -108v-4q0 -66 -48 -108t-114 -42t-114 42t-48 108zM582 600h397l-199 473zM840 1704v4q0 66 47.5 108t113.5 42t114 -42t48 -108v-4q0 -66 -48 -108t-114 -42t-113.5 42t-47.5 108z" />
    <glyph glyph-name="Aring" unicode="&#xc5;" horiz-adv-x="1617" 
d="M98 135q0 16 5.5 33.5t13.5 34.5l532 1202q-41 35 -64.5 81t-23.5 99v4q0 49 20.5 92t54.5 75t79 51.5t94 19.5t94 -19.5t79 -51.5t54.5 -75t20.5 -92v-4q0 -53 -23.5 -99t-64.5 -81l532 -1202q16 -37 17 -64q0 -63 -43 -107t-107 -44q-55 0 -92 29.5t-59 78.5l-97 226
h-631l-100 -236q-20 -47 -58 -72.5t-87 -25.5q-61 0 -103.5 43t-42.5 104zM606 600h398l-199 473zM682 1585q0 -51 37 -88t90 -37t90 37t37 88v4q0 51 -37 88t-90 37t-90 -37t-37 -88v-4z" />
    <glyph glyph-name="AE" unicode="&#xc6;" horiz-adv-x="2140" 
d="M68 115q0 23 7 48t17 42l641 1118q29 51 74 81t115 30h970q59 0 100.5 -41t41.5 -101q0 -59 -41 -99t-101 -40h-587v-291h495q59 0 100.5 -41t41.5 -100t-41 -99t-101 -40h-495v-301h598q59 0 100 -41t41 -101q0 -59 -41 -99t-100 -40h-754q-66 0 -112 46t-46 112v164
h-508l-139 -248q-49 -86 -137 -86q-59 0 -99 36t-40 91zM641 600h350v561h-35z" />
    <glyph glyph-name="Ccedilla" unicode="&#xc7;" horiz-adv-x="1511" 
d="M109 713v4q0 154 55 288t153.5 235t235.5 159.5t303 58.5q162 0 275.5 -40t203.5 -105q25 -18 43.5 -51t18.5 -74q0 -66 -45 -110t-111 -44q-33 0 -55.5 10.5t-38.5 20.5q-66 49 -136.5 75.5t-156.5 26.5q-90 0 -167 -34.5t-132 -96t-86 -142.5t-31 -173v-4
q0 -92 31 -174t85 -143.5t131 -97.5t169 -36q100 0 172 30t139 83q41 35 95 35q59 0 103 -43t44 -103q0 -37 -15 -65.5t-38 -46.5q-90 -78 -197.5 -124t-259.5 -55l-102 -253q-14 -35 -35 -50.5t-55 -15.5q-23 0 -52.5 9t-57.5 24.5t-47.5 35t-19.5 37.5q0 14 5.5 28.5
t13.5 25.5l121 178q-123 27 -226.5 93.5t-177.5 160.5t-114.5 212t-40.5 251z" />
    <glyph glyph-name="Egrave" unicode="&#xc8;" horiz-adv-x="1372" 
d="M172 158v1118q0 66 46 112t112 46h794q59 0 100.5 -41t41.5 -101q0 -59 -41 -99t-101 -40h-639v-291h547q59 0 100.5 -41t41.5 -100t-41 -99t-101 -40h-547v-301h650q59 0 100 -41t41 -101q0 -59 -41 -99t-100 -40h-805q-66 0 -112 46t-46 112zM379 1794q0 18 16.5 34.5
t42 30t56 21.5t59.5 8q39 0 67.5 -18.5t49.5 -50.5l112 -177q8 -12 14.5 -26t6.5 -29q0 -25 -21.5 -39t-56.5 -14q-53 0 -93 13.5t-85 54.5l-127 118q-18 16 -29.5 34t-11.5 40z" />
    <glyph glyph-name="Eacute" unicode="&#xc9;" horiz-adv-x="1372" 
d="M172 158v1118q0 66 46 112t112 46h794q59 0 100.5 -41t41.5 -101q0 -59 -41 -99t-101 -40h-639v-291h547q59 0 100.5 -41t41.5 -100t-41 -99t-101 -40h-547v-301h650q59 0 100 -41t41 -101q0 -59 -41 -99t-100 -40h-805q-66 0 -112 46t-46 112zM631 1587q0 14 6 28.5
t14 26.5l113 177q20 33 49 51t68 18q29 0 59.5 -8t56 -21.5t42 -30t16.5 -34.5q0 -23 -11.5 -40t-29.5 -34l-127 -118q-45 -41 -85 -54.5t-93 -13.5q-35 0 -56.5 14.5t-21.5 38.5z" />
    <glyph glyph-name="Ecircumflex" unicode="&#xca;" horiz-adv-x="1372" 
d="M172 158v1118q0 66 46 112t112 46h794q59 0 100.5 -41t41.5 -101q0 -59 -41 -99t-101 -40h-639v-291h547q59 0 100.5 -41t41.5 -100t-41 -99t-101 -40h-547v-301h650q59 0 100 -41t41 -101q0 -59 -41 -99t-100 -40h-805q-66 0 -112 46t-46 112zM362 1583q0 14 10.5 29.5
t20.5 29.5l129 166q27 33 59.5 51.5t86.5 18.5h98q53 0 86 -18.5t59 -51.5l129 -166q10 -14 20.5 -29.5t10.5 -29.5q0 -25 -21.5 -37t-50.5 -12q-53 0 -95 13.5t-93 54.5l-96 79l-97 -79q-51 -41 -93 -54.5t-95 -13.5q-29 0 -48.5 12.5t-19.5 36.5z" />
    <glyph glyph-name="Edieresis" unicode="&#xcb;" horiz-adv-x="1372" 
d="M172 158v1118q0 66 46 112t112 46h794q59 0 100.5 -41t41.5 -101q0 -59 -41 -99t-101 -40h-639v-291h547q59 0 100.5 -41t41.5 -100t-41 -99t-101 -40h-547v-301h650q59 0 100 -41t41 -101q0 -59 -41 -99t-100 -40h-805q-66 0 -112 46t-46 112zM336 1683v5q0 66 48 107.5
t114 41.5t113.5 -42t47.5 -107v-5q0 -66 -48 -107.5t-113 -41.5q-66 0 -114 42t-48 107zM774 1683v5q0 66 48 107.5t114 41.5t114 -42t48 -107v-5q0 -66 -48.5 -107.5t-113.5 -41.5q-66 0 -114 42t-48 107z" />
    <glyph glyph-name="Igrave" unicode="&#xcc;" horiz-adv-x="688" 
d="M6 1794q0 18 16.5 34.5t42 30t56.5 21.5t59 8q39 0 67.5 -18.5t49.5 -50.5l113 -177q8 -12 14 -26t6 -29q0 -25 -21.5 -39t-56.5 -14q-53 0 -93 13.5t-85 54.5l-127 118q-18 16 -29.5 34t-11.5 40zM186 145v1143q0 66 46.5 112t111.5 46q66 0 112 -46t46 -112v-1143
q0 -66 -46 -111.5t-112 -45.5t-112 46t-46 111z" />
    <glyph glyph-name="Iacute" unicode="&#xcd;" horiz-adv-x="688" 
d="M186 145v1143q0 66 46.5 112t111.5 46q66 0 112 -46t46 -112v-1143q0 -66 -46 -111.5t-112 -45.5t-112 46t-46 111zM258 1587q0 14 6 28.5t15 26.5l112 177q20 33 49 51t68 18q29 0 59.5 -8t56 -21.5t42 -30t16.5 -34.5q0 -23 -11.5 -40t-29.5 -34l-127 -118
q-45 -41 -85 -54.5t-93 -13.5q-35 0 -56.5 14.5t-21.5 38.5z" />
    <glyph glyph-name="Icircumflex" unicode="&#xce;" horiz-adv-x="688" 
d="M-10 1583q0 14 10 29.5t20 29.5l130 166q27 33 59.5 51.5t85.5 18.5h98q53 0 86 -18.5t60 -51.5l129 -166q10 -14 20 -29.5t10 -29.5q0 -25 -21.5 -37t-49.5 -12q-53 0 -95.5 13.5t-93.5 54.5l-96 79l-96 -79q-51 -41 -93 -54.5t-96 -13.5q-29 0 -48 12.5t-19 36.5z
M186 145v1143q0 66 46.5 112t111.5 46q66 0 112 -46t46 -112v-1143q0 -66 -46 -111.5t-112 -45.5t-112 46t-46 111z" />
    <glyph glyph-name="Idieresis" unicode="&#xcf;" horiz-adv-x="688" 
d="M-37 1683v5q0 66 48 107.5t114 41.5t114 -42t48 -107v-5q0 -66 -48.5 -107.5t-113.5 -41.5q-66 0 -114 42t-48 107zM186 145v1143q0 66 46.5 112t111.5 46q66 0 112 -46t46 -112v-1143q0 -66 -46 -111.5t-112 -45.5t-112 46t-46 111zM401 1683v5q0 66 48 107.5t114 41.5
t114 -42t48 -107v-5q0 -66 -48 -107.5t-114 -41.5t-114 42t-48 107z" />
    <glyph glyph-name="Eth" unicode="&#xd0;" horiz-adv-x="1662" 
d="M68 721q0 59 39.5 99t99.5 40h26v416q0 66 46.5 112t111.5 46h402q168 0 308 -54.5t241.5 -150.5t156.5 -226.5t55 -281.5v-4q0 -152 -55 -283t-156.5 -227t-241.5 -151.5t-308 -55.5h-402q-66 0 -112 46t-46 112v424h-26q-59 0 -99 40t-40 99zM545 285h248
q96 0 176 30.5t136 88t88 135t32 174.5v4q0 94 -32 174t-88 137t-136 89t-176 32h-248v-289h184q59 0 99 -40t40 -99t-40 -99t-99 -40h-184v-297z" />
    <glyph glyph-name="Ntilde" unicode="&#xd1;" horiz-adv-x="1617" 
d="M172 143v1141q0 66 46 112t112 46h32q57 0 94.5 -25.5t69.5 -66.5l609 -799v739q0 66 45 111t110 45q66 0 111 -45t45 -111v-1140q0 -66 -46 -112t-112 -46h-10q-57 0 -94 25.5t-70 66.5l-631 827v-768q0 -66 -45 -110.5t-110 -44.5q-66 0 -111 45t-45 110zM412 1604
q0 10 3 26.5t7 28.5q35 90 85 145.5t144 55.5q47 0 91 -12.5t83 -28t72 -27.5t61 -12q37 0 57.5 14t39.5 45q12 20 31.5 33.5t48.5 13.5q37 0 64.5 -25.5t27.5 -58.5q0 -10 -3 -26.5t-7 -28.5q-35 -90 -85.5 -145.5t-144.5 -55.5q-47 0 -91 12.5t-83 28t-72.5 27.5t-60.5 12
q-37 0 -57.5 -14t-38.5 -45q-12 -20 -32 -33.5t-48 -13.5q-37 0 -64.5 25.5t-27.5 58.5z" />
    <glyph glyph-name="Ograve" unicode="&#xd2;" horiz-adv-x="1740" 
d="M109 713v4q0 154 57 288t158.5 235t242 159.5t305.5 58.5q166 0 305.5 -58.5t241 -157.5t157.5 -233.5t56 -287.5v-4q0 -154 -57 -288t-158.5 -235.5t-242 -160t-306.5 -58.5t-305 58.5t-240.5 158t-157.5 233.5t-56 288zM438 717q0 -92 32 -174t90 -143.5t137 -97.5
t175 -36q94 0 174 35t136.5 96.5t88.5 142.5t32 173v4q0 92 -32 174t-90.5 143.5t-138 97t-174.5 35.5q-96 0 -175 -34.5t-135 -96t-88 -142.5t-32 -173v-4zM532 1815q0 18 16.5 34.5t42 29.5t56.5 21.5t60 8.5q39 0 67.5 -18.5t48.5 -51.5l113 -176q8 -12 14 -26.5t6 -28.5
q0 -25 -21 -39.5t-56 -14.5q-53 0 -93.5 13.5t-85.5 54.5l-127 119q-18 16 -29.5 33.5t-11.5 40.5z" />
    <glyph glyph-name="Oacute" unicode="&#xd3;" horiz-adv-x="1740" 
d="M109 713v4q0 154 57 288t158.5 235t242 159.5t305.5 58.5q166 0 305.5 -58.5t241 -157.5t157.5 -233.5t56 -287.5v-4q0 -154 -57 -288t-158.5 -235.5t-242 -160t-306.5 -58.5t-305 58.5t-240.5 158t-157.5 233.5t-56 288zM438 717q0 -92 32 -174t90 -143.5t137 -97.5
t175 -36q94 0 174 35t136.5 96.5t88.5 142.5t32 173v4q0 92 -32 174t-90.5 143.5t-138 97t-174.5 35.5q-96 0 -175 -34.5t-135 -96t-88 -142.5t-32 -173v-4zM784 1608q0 14 6.5 28.5t14.5 26.5l113 176q20 33 48.5 51.5t67.5 18.5q29 0 59.5 -8.5t56.5 -21.5t42 -29.5
t16 -34.5q0 -23 -11 -40.5t-30 -33.5l-127 -119q-45 -41 -85 -54.5t-93 -13.5q-35 0 -56.5 14.5t-21.5 39.5z" />
    <glyph glyph-name="Ocircumflex" unicode="&#xd4;" horiz-adv-x="1740" 
d="M109 713v4q0 154 57 288t158.5 235t242 159.5t305.5 58.5q166 0 305.5 -58.5t241 -157.5t157.5 -233.5t56 -287.5v-4q0 -154 -57 -288t-158.5 -235.5t-242 -160t-306.5 -58.5t-305 58.5t-240.5 158t-157.5 233.5t-56 288zM438 717q0 -92 32 -174t90 -143.5t137 -97.5
t175 -36q94 0 174 35t136.5 96.5t88.5 142.5t32 173v4q0 92 -32 174t-90.5 143.5t-138 97t-174.5 35.5q-96 0 -175 -34.5t-135 -96t-88 -142.5t-32 -173v-4zM516 1604q0 14 10.5 29.5t20.5 29.5l129 166q27 33 59.5 51t85.5 18h99q53 0 85.5 -18t59.5 -51l129 -166
q10 -14 20.5 -29.5t10.5 -29.5q0 -25 -21.5 -37.5t-50.5 -12.5q-53 0 -95 13.5t-93 54.5l-97 80l-96 -80q-51 -41 -93 -54.5t-95 -13.5q-29 0 -48.5 12.5t-19.5 37.5z" />
    <glyph glyph-name="Otilde" unicode="&#xd5;" horiz-adv-x="1740" 
d="M109 713v4q0 154 57 288t158.5 235t242 159.5t305.5 58.5q166 0 305.5 -58.5t241 -157.5t157.5 -233.5t56 -287.5v-4q0 -154 -57 -288t-158.5 -235.5t-242 -160t-306.5 -58.5t-305 58.5t-240.5 158t-157.5 233.5t-56 288zM438 717q0 -92 32 -174t90 -143.5t137 -97.5
t175 -36q94 0 174 35t136.5 96.5t88.5 142.5t32 173v4q0 92 -32 174t-90.5 143.5t-138 97t-174.5 35.5q-96 0 -175 -34.5t-135 -96t-88 -142.5t-32 -173v-4zM473 1624q0 10 3 26.5t7 28.5q35 90 85 145.5t145 55.5q47 0 91 -12.5t83 -27.5l71.5 -27.5t61.5 -12.5
q37 0 57.5 14.5t38.5 45.5q12 20 31.5 33.5t48.5 13.5q37 0 64.5 -26t27.5 -58q0 -10 -3 -26.5t-7 -29.5q-35 -90 -85 -145t-144 -55q-47 0 -91.5 12t-83 27.5t-72.5 28t-61 12.5q-37 0 -57.5 -14.5t-38.5 -45.5q-12 -20 -31.5 -33.5t-48.5 -13.5q-37 0 -64.5 25.5
t-27.5 58.5z" />
    <glyph glyph-name="Odieresis" unicode="&#xd6;" horiz-adv-x="1740" 
d="M109 713v4q0 154 57 288t158.5 235t242 159.5t305.5 58.5q166 0 305.5 -58.5t241 -157.5t157.5 -233.5t56 -287.5v-4q0 -154 -57 -288t-158.5 -235.5t-242 -160t-306.5 -58.5t-305 58.5t-240.5 158t-157.5 233.5t-56 288zM438 717q0 -92 32 -174t90 -143.5t137 -97.5
t175 -36q94 0 174 35t136.5 96.5t88.5 142.5t32 173v4q0 92 -32 174t-90.5 143.5t-138 97t-174.5 35.5q-96 0 -175 -34.5t-135 -96t-88 -142.5t-32 -173v-4zM489 1704v4q0 66 48 108t114 42t114 -42t48 -108v-4q0 -66 -48 -108t-114 -42t-114 42t-48 108zM928 1704v4
q0 66 48 108t114 42t113.5 -42t47.5 -108v-4q0 -66 -48 -108t-113 -42q-66 0 -114 42t-48 108z" />
    <glyph glyph-name="multiply" unicode="&#xd7;" horiz-adv-x="1310" 
d="M193 391q0 29 12 54.5t33 46.5l233 227l-238 229q-41 41 -40 99q0 57 39.5 97t97.5 40q57 0 98 -41l229 -238l230 236q43 43 98 43t94 -39t39 -94q0 -29 -12 -54.5t-33 -46.5l-233 -227l237 -229q41 -41 41 -99q0 -57 -40 -97t-97 -40t-98 41l-230 238l-229 -236
q-43 -43 -98 -43t-94 39t-39 94z" />
    <glyph glyph-name="Oslash" unicode="&#xd8;" horiz-adv-x="1740" 
d="M109 713v4q0 154 57 288t158.5 235t242 159.5t305.5 58.5q125 0 235 -33.5t202 -93.5l84 82q16 16 40.5 29.5t53.5 13.5q47 0 77.5 -29.5t30.5 -68.5q0 -31 -14 -55.5t-31 -40.5l-77 -82q76 -94 117.5 -211t41.5 -248v-4q0 -154 -57 -288t-158.5 -235.5t-242 -160
t-306.5 -58.5q-127 0 -236.5 34t-201.5 93l-82 -82q-16 -16 -40.5 -29.5t-53.5 -13.5q-47 0 -78 30t-31 69q0 31 14.5 55.5t30.5 40.5l78 80q-78 94 -118.5 212t-40.5 249zM432 717q0 -131 60 -234l606 625q-49 31 -106.5 48.5t-123.5 17.5q-96 0 -176 -36t-138 -97.5
t-90 -144.5t-32 -175v-4zM641 324q102 -64 231 -64q96 0 176 36t138.5 97.5t90.5 144.5t32 175v4q0 127 -60 233z" />
    <glyph glyph-name="Ugrave" unicode="&#xd9;" horiz-adv-x="1548" 
d="M150 614v674q0 66 46 112t111 46q66 0 112 -46t46 -112v-665q0 -176 82 -265.5t227 -89.5t227 86t82 258v676q0 66 46.5 112t111.5 46q66 0 112 -46t46 -112v-663q0 -164 -44 -285t-126 -202t-199 -121t-260 -40q-289 0 -454.5 160t-165.5 477zM436 1794q0 18 16.5 34.5
t42 30t56.5 21.5t59 8q39 0 68 -18.5t49 -50.5l113 -177q8 -12 14 -26t6 -29q0 -25 -21.5 -39t-56.5 -14q-53 0 -93 13.5t-85 54.5l-127 118q-18 16 -29.5 34t-11.5 40z" />
    <glyph glyph-name="Uacute" unicode="&#xda;" horiz-adv-x="1548" 
d="M150 614v674q0 66 46 112t111 46q66 0 112 -46t46 -112v-665q0 -176 82 -265.5t227 -89.5t227 86t82 258v676q0 66 46.5 112t111.5 46q66 0 112 -46t46 -112v-663q0 -164 -44 -285t-126 -202t-199 -121t-260 -40q-289 0 -454.5 160t-165.5 477zM688 1587q0 14 6 28.5
t15 26.5l112 177q20 33 49 51t68 18q29 0 59.5 -8t56 -21.5t42 -30t16.5 -34.5q0 -23 -11 -40t-30 -34l-127 -118q-45 -41 -85 -54.5t-93 -13.5q-35 0 -56.5 14.5t-21.5 38.5z" />
    <glyph glyph-name="Ucircumflex" unicode="&#xdb;" horiz-adv-x="1548" 
d="M150 614v674q0 66 46 112t111 46q66 0 112 -46t46 -112v-665q0 -176 82 -265.5t227 -89.5t227 86t82 258v676q0 66 46.5 112t111.5 46q66 0 112 -46t46 -112v-663q0 -164 -44 -285t-126 -202t-199 -121t-260 -40q-289 0 -454.5 160t-165.5 477zM420 1583q0 14 10 29.5
t21 29.5l129 166q27 33 59.5 51.5t85.5 18.5h98q53 0 86 -18.5t60 -51.5l129 -166q10 -14 20 -29.5t10 -29.5q0 -25 -21.5 -37t-49.5 -12q-53 0 -95 13.5t-94 54.5l-96 79l-96 -79q-51 -41 -93 -54.5t-96 -13.5q-29 0 -48 12.5t-19 36.5z" />
    <glyph glyph-name="Udieresis" unicode="&#xdc;" horiz-adv-x="1548" 
d="M150 614v674q0 66 46 112t111 46q66 0 112 -46t46 -112v-665q0 -176 82 -265.5t227 -89.5t227 86t82 258v676q0 66 46.5 112t111.5 46q66 0 112 -46t46 -112v-663q0 -164 -44 -285t-126 -202t-199 -121t-260 -40q-289 0 -454.5 160t-165.5 477zM393 1683v5q0 66 48 107.5
t114 41.5t114 -42t48 -107v-5q0 -66 -48 -107.5t-114 -41.5t-114 42t-48 107zM831 1683v5q0 66 48 107.5t114 41.5t114 -42t48 -107v-5q0 -66 -48 -107.5t-114 -41.5t-114 42t-48 107z" />
    <glyph glyph-name="Yacute" unicode="&#xdd;" horiz-adv-x="1591" 
d="M98 1266q-12 61 24 114.5t97 65.5q63 10 116.5 -25t63.5 -98q23 -119 61 -197.5t82 -129t89 -77t82 -37t61 -10.5h23q14 0 65 7.5t114.5 49.5t124 134t93.5 260q12 63 64.5 98t115.5 25q63 -12 99 -65.5t24 -114.5q-33 -170 -93.5 -288t-135 -195.5t-157.5 -121
t-159 -63.5v-455q0 -66 -45 -110.5t-110 -44.5q-66 0 -111 45t-45 110v455q-76 20 -158 63.5t-156.5 121t-135 195.5t-93.5 288zM711 1587q0 14 6 28.5t14 26.5l113 177q20 33 49 51t68 18q29 0 59.5 -8t56 -21.5t42 -30t16.5 -34.5q0 -23 -11.5 -40t-29.5 -34l-127 -118
q-45 -41 -85.5 -54.5t-93.5 -13.5q-35 0 -56 14.5t-21 38.5z" />
    <glyph glyph-name="Thorn" unicode="&#xde;" horiz-adv-x="1378" 
d="M172 145v1143q0 66 46 112t112 46t111.5 -46t45.5 -112v-63h271q129 0 230.5 -36t172 -101.5t108.5 -156.5t38 -202v-4q0 -125 -45 -219t-124 -157.5t-184.5 -95.5t-226.5 -32h-240v-76q0 -66 -46 -111.5t-111 -45.5q-66 0 -112 46t-46 111zM487 502h250
q119 0 184.5 62.5t65.5 154.5v4q0 106 -68.5 161.5t-187.5 55.5h-244v-438z" />
    <glyph glyph-name="germandbls" unicode="&#xdf;" horiz-adv-x="1269" 
d="M139 141v889q0 113 36 202t101.5 150.5t158.5 94t208 32.5q111 0 196 -30.5t143 -84t88 -126t30 -156.5v-4q0 -66 -14.5 -117t-40 -90t-59.5 -69.5t-73 -57.5q51 -23 99.5 -54.5t86.5 -75.5t60.5 -101.5t22.5 -130.5v-4q0 -102 -40 -179t-102.5 -129.5t-141.5 -79
t-155 -26.5q-68 0 -105.5 35t-37.5 90q0 47 29.5 78.5t79.5 44.5q80 20 122.5 62t42.5 114v4q0 66 -45 107.5t-122 70.5q-41 16 -74 46t-33 89q0 45 17.5 75t41.5 48q59 45 96.5 97.5t37.5 123.5v4q0 78 -44 121t-120 43q-80 0 -130 -55t-50 -150v-901q0 -66 -45.5 -109.5
t-110.5 -43.5q-66 0 -110 44t-44 109z" />
    <glyph glyph-name="agrave" unicode="&#xe0;" horiz-adv-x="1212" 
d="M74 315v4q0 90 32.5 156t91 109t139.5 64.5t179 21.5q84 0 146.5 -12.5t121.5 -32.5v18q0 98 -59 149.5t-176 51.5q-66 0 -118 -8.5t-97 -22.5q-25 -8 -45 -8q-53 0 -91 37t-38 90q0 41 23.5 73.5t60.5 47.5q74 29 156.5 43t193.5 14q129 0 220 -31.5t151 -91.5
q61 -61 89.5 -150t28.5 -200v-500q0 -63 -44 -106t-107 -43q-68 0 -109 40t-41 89v2q-57 -63 -136.5 -101t-194.5 -38q-78 0 -146.5 21.5t-120 64.5t-81 105t-29.5 144zM272 1466q0 18 16.5 35t42 30t56.5 21.5t59 8.5q39 0 68 -18.5t49 -51.5l113 -176q8 -12 14 -26.5
t6 -28.5q0 -25 -21.5 -39.5t-56.5 -14.5q-53 0 -93 13.5t-85 54.5l-127 119q-18 16 -29.5 33.5t-11.5 39.5zM375 328q0 -63 47 -98t123 -35q111 0 177 53t66 139v55q-41 18 -91 29.5t-107 11.5q-100 0 -157.5 -38.5t-57.5 -112.5v-4z" />
    <glyph glyph-name="aacute" unicode="&#xe1;" horiz-adv-x="1212" 
d="M74 315v4q0 90 32.5 156t91 109t139.5 64.5t179 21.5q84 0 146.5 -12.5t121.5 -32.5v18q0 98 -59 149.5t-176 51.5q-66 0 -118 -8.5t-97 -22.5q-25 -8 -45 -8q-53 0 -91 37t-38 90q0 41 23.5 73.5t60.5 47.5q74 29 156.5 43t193.5 14q129 0 220 -31.5t151 -91.5
q61 -61 89.5 -150t28.5 -200v-500q0 -63 -44 -106t-107 -43q-68 0 -109 40t-41 89v2q-57 -63 -136.5 -101t-194.5 -38q-78 0 -146.5 21.5t-120 64.5t-81 105t-29.5 144zM375 328q0 -63 47 -98t123 -35q111 0 177 53t66 139v55q-41 18 -91 29.5t-107 11.5
q-100 0 -157.5 -38.5t-57.5 -112.5v-4zM524 1260q0 14 6.5 28.5t14.5 26.5l112 176q20 33 49 51.5t68 18.5q29 0 59.5 -8.5t56 -21.5t42 -29.5t16.5 -35.5q0 -23 -11 -40t-30 -33l-127 -119q-45 -41 -85 -54.5t-93 -13.5q-35 0 -56.5 14.5t-21.5 39.5z" />
    <glyph glyph-name="acircumflex" unicode="&#xe2;" horiz-adv-x="1212" 
d="M74 315v4q0 90 32.5 156t91 109t139.5 64.5t179 21.5q84 0 146.5 -12.5t121.5 -32.5v18q0 98 -59 149.5t-176 51.5q-66 0 -118 -8.5t-97 -22.5q-25 -8 -45 -8q-53 0 -91 37t-38 90q0 41 23.5 73.5t60.5 47.5q74 29 156.5 43t193.5 14q129 0 220 -31.5t151 -91.5
q61 -61 89.5 -150t28.5 -200v-500q0 -63 -44 -106t-107 -43q-68 0 -109 40t-41 89v2q-57 -63 -136.5 -101t-194.5 -38q-78 0 -146.5 21.5t-120 64.5t-81 105t-29.5 144zM256 1255q0 14 10 29.5t21 30.5l129 166q27 33 59.5 51t85.5 18h98q53 0 86 -18.5t60 -50.5l129 -166
q10 -14 20.5 -29.5t10.5 -30.5q0 -25 -21.5 -37t-50.5 -12q-53 0 -95 13.5t-93 54.5l-97 80l-96 -80q-51 -41 -93 -54.5t-95 -13.5q-29 0 -48.5 12.5t-19.5 36.5zM375 328q0 -63 47 -98t123 -35q111 0 177 53t66 139v55q-41 18 -91 29.5t-107 11.5q-100 0 -157.5 -38.5
t-57.5 -112.5v-4z" />
    <glyph glyph-name="atilde" unicode="&#xe3;" horiz-adv-x="1212" 
d="M74 315v4q0 90 32.5 156t91 109t139.5 64.5t179 21.5q84 0 146.5 -12.5t121.5 -32.5v18q0 98 -59 149.5t-176 51.5q-66 0 -118 -8.5t-97 -22.5q-25 -8 -45 -8q-53 0 -91 37t-38 90q0 41 23.5 73.5t60.5 47.5q74 29 156.5 43t193.5 14q129 0 220 -31.5t151 -91.5
q61 -61 89.5 -150t28.5 -200v-500q0 -63 -44 -106t-107 -43q-68 0 -109 40t-41 89v2q-57 -63 -136.5 -101t-194.5 -38q-78 0 -146.5 21.5t-120 64.5t-81 105t-29.5 144zM213 1276q0 10 3 26.5t7 28.5q35 90 85 145.5t145 55.5q47 0 91 -12.5t83 -27.5l71.5 -27.5t61.5 -12.5
q37 0 57.5 14.5t38.5 44.5q12 20 31.5 34t48.5 14q37 0 64.5 -26t27.5 -58q0 -10 -3 -26.5t-7 -29.5q-35 -90 -85 -145t-145 -55q-47 0 -91 12t-83 27.5t-72.5 27.5t-60.5 12q-37 0 -57.5 -14t-38.5 -45q-12 -20 -31.5 -33.5t-48.5 -13.5q-37 0 -64.5 25.5t-27.5 58.5z
M375 328q0 -63 47 -98t123 -35q111 0 177 53t66 139v55q-41 18 -91 29.5t-107 11.5q-100 0 -157.5 -38.5t-57.5 -112.5v-4z" />
    <glyph glyph-name="adieresis" unicode="&#xe4;" horiz-adv-x="1212" 
d="M74 315v4q0 90 32.5 156t91 109t139.5 64.5t179 21.5q84 0 146.5 -12.5t121.5 -32.5v18q0 98 -59 149.5t-176 51.5q-66 0 -118 -8.5t-97 -22.5q-25 -8 -45 -8q-53 0 -91 37t-38 90q0 41 23.5 73.5t60.5 47.5q74 29 156.5 43t193.5 14q129 0 220 -31.5t151 -91.5
q61 -61 89.5 -150t28.5 -200v-500q0 -63 -44 -106t-107 -43q-68 0 -109 40t-41 89v2q-57 -63 -136.5 -101t-194.5 -38q-78 0 -146.5 21.5t-120 64.5t-81 105t-29.5 144zM229 1356v4q0 66 48 107.5t114 41.5t114 -42t48 -107v-4q0 -66 -48 -108t-114 -42t-114 42t-48 108z
M375 328q0 -63 47 -98t123 -35q111 0 177 53t66 139v55q-41 18 -91 29.5t-107 11.5q-100 0 -157.5 -38.5t-57.5 -112.5v-4zM668 1356v4q0 66 47.5 107.5t113.5 41.5t114 -42t48 -107v-4q0 -66 -48 -108t-114 -42t-113.5 42t-47.5 108z" />
    <glyph glyph-name="aring" unicode="&#xe5;" horiz-adv-x="1212" 
d="M74 315v4q0 90 32.5 156t91 109t139.5 64.5t179 21.5q84 0 146.5 -12.5t121.5 -32.5v18q0 98 -59 149.5t-176 51.5q-66 0 -118 -8.5t-97 -22.5q-25 -8 -45 -8q-53 0 -91 37t-38 90q0 41 23.5 73.5t60.5 47.5q74 29 156.5 43t193.5 14q129 0 220 -31.5t151 -91.5
q61 -61 89.5 -150t28.5 -200v-500q0 -63 -44 -106t-107 -43q-68 0 -109 40t-41 89v2q-57 -63 -136.5 -101t-194.5 -38q-78 0 -146.5 21.5t-120 64.5t-81 105t-29.5 144zM362 1452v4q0 49 20.5 92t54.5 75t79 51.5t94 19.5t94.5 -19.5t79 -51.5t54 -75t20.5 -92v-4
q0 -49 -20.5 -92t-54 -75t-79 -51.5t-94.5 -19.5t-94 19.5t-79 51.5t-54.5 75t-20.5 92zM375 328q0 -63 47 -98t123 -35q111 0 177 53t66 139v55q-41 18 -91 29.5t-107 11.5q-100 0 -157.5 -38.5t-57.5 -112.5v-4zM483 1452q0 -51 37 -88t90 -37t90 37t37 88v4
q0 51 -36.5 88t-90.5 37q-53 0 -90 -37t-37 -88v-4z" />
    <glyph glyph-name="ae" unicode="&#xe6;" horiz-adv-x="1947" 
d="M74 315v4q0 90 32.5 156t91 109t139.5 64.5t179 21.5q84 0 146.5 -12.5t121.5 -32.5v18q0 98 -59 149.5t-176 51.5q-66 0 -118 -8.5t-97 -22.5q-25 -8 -45 -8q-53 0 -91 37t-38 90q0 41 23.5 73.5t60.5 47.5q74 29 156.5 43t193.5 14q135 0 226 -36t147 -103
q68 70 159 108.5t203 38.5q133 0 231.5 -50t163 -128t95 -171t30.5 -179q0 -68 -42 -109t-103 -41h-617q23 -106 93.5 -160.5t175.5 -54.5q66 0 120 19.5t101 54.5q16 12 33.5 18.5t42.5 6.5q53 0 87 -35t34 -88q0 -31 -12.5 -53.5t-28.5 -38.5q-72 -61 -166 -97.5
t-215 -36.5q-127 0 -233.5 44t-184.5 122q-94 -70 -205 -115.5t-242 -45.5q-90 0 -165.5 22.5t-131 65.5t-86 105.5t-30.5 141.5zM375 328q0 -59 49 -94t121 -35q70 0 140.5 25.5t139.5 78.5q-14 33 -24 68t-15 73q-41 16 -91 27.5t-105 11.5q-100 0 -157.5 -38.5
t-57.5 -112.5v-4zM1083 635h469q-14 104 -73.5 168.5t-157.5 64.5t-158.5 -63.5t-79.5 -169.5z" />
    <glyph glyph-name="ccedilla" unicode="&#xe7;" horiz-adv-x="1169" 
d="M86 543v4q0 117 43 221t119 182t181.5 123t232.5 45q125 0 215 -31.5t159 -91.5q16 -12 32.5 -38.5t16.5 -67.5q0 -59 -40.5 -99t-100.5 -40q-31 0 -53.5 10t-36.5 20q-41 33 -87 51.5t-108 18.5q-59 0 -107 -23.5t-84 -64.5t-55.5 -95.5t-19.5 -115.5v-4
q0 -63 19.5 -118.5t56.5 -96.5t88 -64.5t115 -23.5q61 0 110 20.5t95 54.5q12 10 33.5 19.5t50.5 9.5q55 0 93 -39t38 -94q0 -31 -12.5 -55.5t-32.5 -42.5q-63 -57 -143.5 -94t-194.5 -46l-103 -253q-14 -35 -34.5 -50.5t-55.5 -15.5q-23 0 -52.5 9t-57 24.5t-47 35
t-19.5 37.5q0 14 5 28.5t13 25.5l125 182q-90 27 -162.5 79t-125 122.5t-81 157.5t-28.5 184z" />
    <glyph glyph-name="egrave" unicode="&#xe8;" horiz-adv-x="1255" 
d="M86 543v4q0 117 40 221t111.5 182t171 123t220.5 45q137 0 237.5 -50t165 -128t95 -171t30.5 -179q0 -68 -42 -109t-103 -41h-617q23 -106 93.5 -160.5t175.5 -54.5q66 0 120 19.5t101 54.5q16 12 33.5 18.5t42.5 6.5q53 0 86.5 -35t33.5 -88q0 -31 -12.5 -53.5
t-28.5 -38.5q-72 -61 -166 -97.5t-215 -36.5q-123 0 -228 41t-182 117t-120 179.5t-43 230.5zM287 1466q0 18 16 35t42 30t56.5 21.5t59.5 8.5q39 0 67.5 -18.5t49.5 -51.5l112 -176q8 -12 14.5 -26.5t6.5 -28.5q0 -25 -21.5 -39.5t-56.5 -14.5q-53 0 -93 13.5t-85 54.5
l-127 119q-18 16 -29.5 33.5t-11.5 39.5zM391 635h469q-14 104 -73.5 168.5t-157.5 64.5t-158.5 -63.5t-79.5 -169.5z" />
    <glyph glyph-name="eacute" unicode="&#xe9;" horiz-adv-x="1255" 
d="M86 543v4q0 117 40 221t111.5 182t171 123t220.5 45q137 0 237.5 -50t165 -128t95 -171t30.5 -179q0 -68 -42 -109t-103 -41h-617q23 -106 93.5 -160.5t175.5 -54.5q66 0 120 19.5t101 54.5q16 12 33.5 18.5t42.5 6.5q53 0 86.5 -35t33.5 -88q0 -31 -12.5 -53.5
t-28.5 -38.5q-72 -61 -166 -97.5t-215 -36.5q-123 0 -228 41t-182 117t-120 179.5t-43 230.5zM391 635h469q-14 104 -73.5 168.5t-157.5 64.5t-158.5 -63.5t-79.5 -169.5zM539 1260q0 14 6 28.5t14 26.5l113 176q20 33 49 51.5t67 18.5q29 0 60 -8.5t56.5 -21.5t42 -29.5
t16.5 -35.5q0 -23 -11.5 -40t-29.5 -33l-127 -119q-45 -41 -85.5 -54.5t-93.5 -13.5q-35 0 -56 14.5t-21 39.5z" />
    <glyph glyph-name="ecircumflex" unicode="&#xea;" horiz-adv-x="1255" 
d="M86 543v4q0 117 40 221t111.5 182t171 123t220.5 45q137 0 237.5 -50t165 -128t95 -171t30.5 -179q0 -68 -42 -109t-103 -41h-617q23 -106 93.5 -160.5t175.5 -54.5q66 0 120 19.5t101 54.5q16 12 33.5 18.5t42.5 6.5q53 0 86.5 -35t33.5 -88q0 -31 -12.5 -53.5
t-28.5 -38.5q-72 -61 -166 -97.5t-215 -36.5q-123 0 -228 41t-182 117t-120 179.5t-43 230.5zM270 1255q0 14 10.5 29.5t20.5 30.5l129 166q27 33 59.5 51t85.5 18h99q53 0 86 -18.5t59 -50.5l129 -166q10 -14 20.5 -29.5t10.5 -30.5q0 -25 -21.5 -37t-50.5 -12
q-53 0 -95 13.5t-93 54.5l-96 80l-97 -80q-51 -41 -93 -54.5t-95 -13.5q-29 0 -48.5 12.5t-19.5 36.5zM391 635h469q-14 104 -73.5 168.5t-157.5 64.5t-158.5 -63.5t-79.5 -169.5z" />
    <glyph glyph-name="edieresis" unicode="&#xeb;" horiz-adv-x="1255" 
d="M86 543v4q0 117 40 221t111.5 182t171 123t220.5 45q137 0 237.5 -50t165 -128t95 -171t30.5 -179q0 -68 -42 -109t-103 -41h-617q23 -106 93.5 -160.5t175.5 -54.5q66 0 120 19.5t101 54.5q16 12 33.5 18.5t42.5 6.5q53 0 86.5 -35t33.5 -88q0 -31 -12.5 -53.5
t-28.5 -38.5q-72 -61 -166 -97.5t-215 -36.5q-123 0 -228 41t-182 117t-120 179.5t-43 230.5zM244 1356v4q0 66 48 107.5t114 41.5t113.5 -42t47.5 -107v-4q0 -66 -48 -108t-113 -42q-66 0 -114 42t-48 108zM391 635h469q-14 104 -73.5 168.5t-157.5 64.5t-158.5 -63.5
t-79.5 -169.5zM682 1356v4q0 66 48 107.5t114 41.5t114 -42t48 -107v-4q0 -66 -48.5 -108t-113.5 -42q-66 0 -114 42t-48 108z" />
    <glyph glyph-name="igrave" unicode="&#xec;" horiz-adv-x="618" 
d="M-29 1466q0 18 16.5 35t42 30t56.5 21.5t59 8.5q39 0 68 -18.5t49 -51.5l113 -176q8 -12 14 -26.5t6 -28.5q0 -25 -21.5 -39.5t-56.5 -14.5q-53 0 -93 13.5t-85 54.5l-127 119q-18 16 -29.5 33.5t-11.5 39.5zM154 143v811q0 66 45 111t110 45q66 0 111 -45t45 -111v-811
q0 -66 -45 -110.5t-111 -44.5t-110.5 45t-44.5 110z" />
    <glyph glyph-name="iacute" unicode="&#xed;" horiz-adv-x="618" 
d="M154 143v811q0 66 45 111t110 45q66 0 111 -45t45 -111v-811q0 -66 -45 -110.5t-111 -44.5t-110.5 45t-44.5 110zM223 1260q0 14 6.5 28.5t14.5 26.5l112 176q20 33 49 51.5t68 18.5q29 0 59.5 -8.5t56 -21.5t42 -29.5t16.5 -35.5q0 -23 -11 -40t-30 -33l-127 -119
q-45 -41 -85 -54.5t-93 -13.5q-35 0 -56.5 14.5t-21.5 39.5z" />
    <glyph glyph-name="icircumflex" unicode="&#xee;" horiz-adv-x="618" 
d="M-45 1255q0 14 10 29.5t21 30.5l129 166q27 33 59.5 51t85.5 18h98q53 0 86 -18.5t60 -50.5l129 -166q10 -14 20.5 -29.5t10.5 -30.5q0 -25 -21.5 -37t-50.5 -12q-53 0 -95 13.5t-94 54.5l-96 80l-96 -80q-51 -41 -93 -54.5t-95 -13.5q-29 0 -48.5 12.5t-19.5 36.5z
M154 143v811q0 66 45 111t110 45q66 0 111 -45t45 -111v-811q0 -66 -45 -110.5t-111 -44.5t-110.5 45t-44.5 110z" />
    <glyph glyph-name="idieresis" unicode="&#xef;" horiz-adv-x="618" 
d="M-72 1356v4q0 66 48 107.5t114 41.5t114 -42t48 -107v-4q0 -66 -48 -108t-114 -42t-114 42t-48 108zM154 143v811q0 66 45 111t110 45q66 0 111 -45t45 -111v-811q0 -66 -45 -110.5t-111 -44.5t-110.5 45t-44.5 110zM367 1356v4q0 66 47.5 107.5t113.5 41.5t114 -42
t48 -107v-4q0 -66 -48 -108t-114 -42t-113.5 42t-47.5 108z" />
    <glyph glyph-name="eth" unicode="&#xf0;" horiz-adv-x="1327" 
d="M86 514q0 106 35 195.5t97.5 153t148.5 98t188 34.5q72 0 129 -15t123 -50l-178 237l-209 -86q-10 -4 -19.5 -6t-19.5 -2q-39 0 -65.5 26.5t-26.5 65.5q0 35 18.5 56.5t46.5 31.5l166 68q-10 27 -10 53q0 59 40 99t99 40q41 0 70 -18t51 -49l12 -19l181 74q10 4 19 6
t19 2q39 0 66 -26.5t27 -65.5q0 -35 -18.5 -56.5t-47.5 -31.5l-137 -55l166 -236q49 -70 83 -131t55.5 -121.5t31.5 -121t10 -125.5q0 -115 -39 -217.5t-114.5 -179t-184 -122t-246.5 -45.5q-123 0 -227 42t-179 115t-118 171t-43 211zM389 508q0 -55 19.5 -104.5t56.5 -86
t87 -58t112 -21.5q63 0 113 20.5t85 57t53.5 86t18.5 106.5q0 55 -19.5 103t-54.5 85t-86 57.5t-112 20.5t-112.5 -20.5t-86.5 -56t-54.5 -84t-19.5 -105.5z" />
    <glyph glyph-name="ntilde" unicode="&#xf1;" 
d="M139 143v811q0 66 45 111t111 45t111 -45t45 -111v-12q27 35 58.5 66.5t70 56.5t86 39t106.5 14q178 0 275.5 -108.5t97.5 -298.5v-568q0 -66 -45 -110.5t-111 -44.5t-110.5 45t-44.5 110v469q0 111 -49.5 167.5t-139.5 56.5t-142 -56.5t-52 -167.5v-469
q0 -66 -45.5 -110.5t-110.5 -44.5q-66 0 -111 45t-45 110zM244 1276q0 10 3 26.5t7 28.5q35 90 85 145.5t144 55.5q47 0 91 -12.5t83 -27.5t72 -27.5t62 -12.5q37 0 57 14.5t39 44.5q12 20 31.5 34t48.5 14q37 0 64.5 -26t27.5 -58q0 -10 -3 -26.5t-7 -29.5
q-35 -90 -85.5 -145t-144.5 -55q-47 0 -91 12t-83 27.5t-72.5 27.5t-60.5 12q-37 0 -57.5 -14t-38.5 -45q-12 -20 -31.5 -33.5t-48.5 -13.5q-37 0 -64.5 25.5t-27.5 58.5z" />
    <glyph glyph-name="ograve" unicode="&#xf2;" horiz-adv-x="1359" 
d="M86 543v4q0 119 45 222t125 181t188.5 123t237.5 45q127 0 235.5 -44t187.5 -120.5t124 -180t45 -222.5v-4q0 -119 -45 -222.5t-125 -181t-188.5 -123t-237.5 -45.5q-127 0 -235.5 44t-187.5 121t-124 180.5t-45 222.5zM342 1466q0 18 16.5 35t42 30t56 21.5t59.5 8.5
q39 0 67.5 -18.5t49.5 -51.5l112 -176q8 -12 14.5 -26.5t6.5 -28.5q0 -25 -21.5 -39.5t-56.5 -14.5q-53 0 -93 13.5t-85 54.5l-127 119q-18 16 -29.5 33.5t-11.5 39.5zM393 547q0 -61 20.5 -115.5t59.5 -96.5t91 -66.5t118 -24.5q68 0 120 23.5t89 64.5t56.5 95t19.5 116v4
q0 61 -20.5 115.5t-59.5 96.5t-92.5 66.5t-116.5 24.5q-68 0 -120 -23.5t-89 -64.5t-56.5 -95.5t-19.5 -115.5v-4z" />
    <glyph glyph-name="oacute" unicode="&#xf3;" horiz-adv-x="1359" 
d="M86 543v4q0 119 45 222t125 181t188.5 123t237.5 45q127 0 235.5 -44t187.5 -120.5t124 -180t45 -222.5v-4q0 -119 -45 -222.5t-125 -181t-188.5 -123t-237.5 -45.5q-127 0 -235.5 44t-187.5 121t-124 180.5t-45 222.5zM393 547q0 -61 20.5 -115.5t59.5 -96.5t91 -66.5
t118 -24.5q68 0 120 23.5t89 64.5t56.5 95t19.5 116v4q0 61 -20.5 115.5t-59.5 96.5t-92.5 66.5t-116.5 24.5q-68 0 -120 -23.5t-89 -64.5t-56.5 -95.5t-19.5 -115.5v-4zM594 1260q0 14 6 28.5t14 26.5l113 176q20 33 49 51.5t68 18.5q29 0 59.5 -8.5t56 -21.5t42 -29.5
t16.5 -35.5q0 -23 -11.5 -40t-29.5 -33l-127 -119q-45 -41 -85 -54.5t-93 -13.5q-35 0 -56.5 14.5t-21.5 39.5z" />
    <glyph glyph-name="ocircumflex" unicode="&#xf4;" horiz-adv-x="1359" 
d="M86 543v4q0 119 45 222t125 181t188.5 123t237.5 45q127 0 235.5 -44t187.5 -120.5t124 -180t45 -222.5v-4q0 -119 -45 -222.5t-125 -181t-188.5 -123t-237.5 -45.5q-127 0 -235.5 44t-187.5 121t-124 180.5t-45 222.5zM326 1255q0 14 10 29.5t20 30.5l129 166
q27 33 60 51t86 18h98q53 0 86 -18.5t59 -50.5l130 -166q10 -14 20 -29.5t10 -30.5q0 -25 -21.5 -37t-49.5 -12q-53 0 -95.5 13.5t-93.5 54.5l-96 80l-96 -80q-51 -41 -93.5 -54.5t-95.5 -13.5q-29 0 -48 12.5t-19 36.5zM393 547q0 -61 20.5 -115.5t59.5 -96.5t91 -66.5
t118 -24.5q68 0 120 23.5t89 64.5t56.5 95t19.5 116v4q0 61 -20.5 115.5t-59.5 96.5t-92.5 66.5t-116.5 24.5q-68 0 -120 -23.5t-89 -64.5t-56.5 -95.5t-19.5 -115.5v-4z" />
    <glyph glyph-name="otilde" unicode="&#xf5;" horiz-adv-x="1359" 
d="M86 543v4q0 119 45 222t125 181t188.5 123t237.5 45q127 0 235.5 -44t187.5 -120.5t124 -180t45 -222.5v-4q0 -119 -45 -222.5t-125 -181t-188.5 -123t-237.5 -45.5q-127 0 -235.5 44t-187.5 121t-124 180.5t-45 222.5zM283 1276q0 10 3 26.5t7 28.5q35 90 85 145.5
t144 55.5q47 0 91 -12.5t83 -27.5t72 -27.5t61 -12.5q37 0 57.5 14.5t39.5 44.5q12 20 31.5 34t48.5 14q37 0 64.5 -26t27.5 -58q0 -10 -3 -26.5t-8 -29.5q-35 -90 -85 -145t-144 -55q-47 0 -91 12t-83 27.5t-72.5 27.5t-60.5 12q-37 0 -57.5 -14t-38.5 -45
q-12 -20 -32 -33.5t-48 -13.5q-37 0 -64.5 25.5t-27.5 58.5zM393 547q0 -61 20.5 -115.5t59.5 -96.5t91 -66.5t118 -24.5q68 0 120 23.5t89 64.5t56.5 95t19.5 116v4q0 61 -20.5 115.5t-59.5 96.5t-92.5 66.5t-116.5 24.5q-68 0 -120 -23.5t-89 -64.5t-56.5 -95.5
t-19.5 -115.5v-4z" />
    <glyph glyph-name="odieresis" unicode="&#xf6;" horiz-adv-x="1359" 
d="M86 543v4q0 119 45 222t125 181t188.5 123t237.5 45q127 0 235.5 -44t187.5 -120.5t124 -180t45 -222.5v-4q0 -119 -45 -222.5t-125 -181t-188.5 -123t-237.5 -45.5q-127 0 -235.5 44t-187.5 121t-124 180.5t-45 222.5zM299 1356v4q0 66 48 107.5t114 41.5t114 -42
t48 -107v-4q0 -66 -48.5 -108t-113.5 -42q-66 0 -114 42t-48 108zM393 547q0 -61 20.5 -115.5t59.5 -96.5t91 -66.5t118 -24.5q68 0 120 23.5t89 64.5t56.5 95t19.5 116v4q0 61 -20.5 115.5t-59.5 96.5t-92.5 66.5t-116.5 24.5q-68 0 -120 -23.5t-89 -64.5t-56.5 -95.5
t-19.5 -115.5v-4zM737 1356v4q0 66 48 107.5t114 41.5t114 -42t48 -107v-4q0 -66 -48 -108t-114 -42t-114 42t-48 108z" />
    <glyph glyph-name="divide" unicode="&#xf7;" horiz-adv-x="1310" 
d="M127 721q0 53 39 92t92 39h795q53 0 92 -39t39 -92t-39 -92t-92 -39h-795q-53 0 -92 39t-39 92zM487 281q0 33 13.5 62.5t36 51t53 33.5t65.5 12t66 -12t53.5 -33.5t35.5 -51.5t13 -62q0 -33 -13 -63t-35.5 -51.5t-53.5 -33.5t-66 -12t-65.5 12t-53 33.5t-36 51.5
t-13.5 63zM487 1161q0 33 13.5 62.5t36 51t53 34t65.5 12.5t66 -12.5t53.5 -34t35.5 -51t13 -62.5t-13 -62.5t-35.5 -51t-53.5 -34t-66 -12.5t-65.5 12.5t-53 34t-36 51t-13.5 62.5z" />
    <glyph glyph-name="oslash" unicode="&#xf8;" horiz-adv-x="1359" 
d="M86 543v4q0 119 45 222t125 181t188.5 123t237.5 45q92 0 174 -24.5t152 -65.5l47 47q20 20 42.5 32.5t51.5 12.5q39 0 67.5 -26.5t28.5 -63.5q0 -33 -13 -55.5t-32 -40.5l-41 -43q53 -72 84 -157t31 -183v-4q0 -119 -45 -222.5t-125 -181t-188.5 -123t-237.5 -45.5
q-92 0 -174 24t-152 67l-47 -48q-20 -20 -42.5 -32.5t-51.5 -12.5q-39 0 -67.5 27t-28.5 63q0 33 13 55.5t32 41.5l41 41q-55 72 -85 157.5t-30 184.5zM385 547q0 -76 27 -131l403 407q-63 35 -137 35q-70 0 -124 -24.5t-92 -66.5t-57.5 -98.5t-19.5 -117.5v-4zM545 268
q61 -32 137 -32q70 0 124 24.5t92 66.5t57.5 98t19.5 118v4q0 35 -7 67.5t-20 63.5z" />
    <glyph glyph-name="ugrave" unicode="&#xf9;" 
d="M131 387v567q0 66 45 111t111 45t110.5 -45t44.5 -111v-469q0 -111 49.5 -167t139.5 -56t142 56.5t52 166.5v469q0 66 45 111t111 45t111 -45t45 -111v-811q0 -66 -45 -110.5t-111 -44.5t-111 45t-45 110v13q-27 -35 -58.5 -67t-70.5 -56.5t-86 -38.5t-106 -14
q-178 0 -275.5 108.5t-97.5 298.5zM295 1466q0 18 16.5 35t42 30t56 21.5t59.5 8.5q39 0 67.5 -18.5t49.5 -51.5l112 -176q8 -12 14.5 -26.5t6.5 -28.5q0 -25 -21.5 -39.5t-56.5 -14.5q-53 0 -93 13.5t-85 54.5l-127 119q-18 16 -29.5 33.5t-11.5 39.5z" />
    <glyph glyph-name="uacute" unicode="&#xfa;" 
d="M131 387v567q0 66 45 111t111 45t110.5 -45t44.5 -111v-469q0 -111 49.5 -167t139.5 -56t142 56.5t52 166.5v469q0 66 45 111t111 45t111 -45t45 -111v-811q0 -66 -45 -110.5t-111 -44.5t-111 45t-45 110v13q-27 -35 -58.5 -67t-70.5 -56.5t-86 -38.5t-106 -14
q-178 0 -275.5 108.5t-97.5 298.5zM547 1260q0 14 6 28.5t14 26.5l113 176q20 33 49 51.5t68 18.5q29 0 59.5 -8.5t56 -21.5t42 -29.5t16.5 -35.5q0 -23 -11.5 -40t-29.5 -33l-127 -119q-45 -41 -85 -54.5t-93 -13.5q-35 0 -56.5 14.5t-21.5 39.5z" />
    <glyph glyph-name="ucircumflex" unicode="&#xfb;" 
d="M131 387v567q0 66 45 111t111 45t110.5 -45t44.5 -111v-469q0 -111 49.5 -167t139.5 -56t142 56.5t52 166.5v469q0 66 45 111t111 45t111 -45t45 -111v-811q0 -66 -45 -110.5t-111 -44.5t-111 45t-45 110v13q-27 -35 -58.5 -67t-70.5 -56.5t-86 -38.5t-106 -14
q-178 0 -275.5 108.5t-97.5 298.5zM279 1255q0 14 10 29.5t20 30.5l129 166q27 33 59.5 51t86.5 18h98q53 0 86 -18.5t59 -50.5l129 -166q10 -14 20.5 -29.5t10.5 -30.5q0 -25 -21.5 -37t-50.5 -12q-53 0 -95 13.5t-93 54.5l-96 80l-96 -80q-51 -41 -93.5 -54.5t-95.5 -13.5
q-29 0 -48 12.5t-19 36.5z" />
    <glyph glyph-name="udieresis" unicode="&#xfc;" 
d="M131 387v567q0 66 45 111t111 45t110.5 -45t44.5 -111v-469q0 -111 49.5 -167t139.5 -56t142 56.5t52 166.5v469q0 66 45 111t111 45t111 -45t45 -111v-811q0 -66 -45 -110.5t-111 -44.5t-111 45t-45 110v13q-27 -35 -58.5 -67t-70.5 -56.5t-86 -38.5t-106 -14
q-178 0 -275.5 108.5t-97.5 298.5zM252 1356v4q0 66 48 107.5t114 41.5t113.5 -42t47.5 -107v-4q0 -66 -48 -108t-113 -42q-66 0 -114 42t-48 108zM690 1356v4q0 66 48 107.5t114 41.5t114 -42t48 -107v-4q0 -66 -48 -108t-114 -42t-114 42t-48 108z" />
    <glyph glyph-name="yacute" unicode="&#xfd;" horiz-adv-x="1200" 
d="M68 961q0 66 44 107.5t109 41.5q59 0 94 -30.5t56 -86.5l237 -639l230 637q18 49 54 84t95 35t103.5 -41t44.5 -102q0 -18 -5.5 -41t-9.5 -33l-383 -920q-35 -84 -70.5 -142t-78.5 -95t-97 -53.5t-124 -16.5q-53 0 -92 7.5t-78 21.5q-35 12 -67 42t-32 87t38 92t85 35
q18 0 29.5 -2t21.5 -6q20 -6 35 -9.5t31 -3.5q41 0 64.5 12.5t46.5 53.5l10 24l-375 869q-6 16 -11 35.5t-5 36.5zM514 1260q0 14 6 28.5t15 26.5l112 176q20 33 49 51.5t68 18.5q29 0 59.5 -8.5t56 -21.5t42 -29.5t16.5 -35.5q0 -23 -11.5 -40t-29.5 -33l-127 -119
q-45 -41 -85 -54.5t-93 -13.5q-35 0 -56.5 14.5t-21.5 39.5z" />
    <glyph glyph-name="thorn" unicode="&#xfe;" horiz-adv-x="1382" 
d="M139 -184v1536q0 66 45 110.5t111 44.5t111 -45t45 -110v-412q57 78 138 128t204 50q96 0 186 -37t159.5 -109.5t111.5 -178t42 -242.5v-4q0 -137 -42 -242.5t-110.5 -178.5t-158.5 -109.5t-188 -36.5q-125 0 -206 49t-136 114v-327q0 -66 -45.5 -111t-110.5 -45
q-66 0 -111 45t-45 111zM446 547q0 -68 21.5 -124t57.5 -96t84.5 -61.5t103.5 -21.5t103 21.5t85 61.5t58.5 95t21.5 125v4q0 68 -21.5 124t-58.5 96t-85 61.5t-103 21.5t-103.5 -21.5t-84.5 -61.5t-57.5 -96.5t-21.5 -123.5v-4z" />
    <glyph glyph-name="ydieresis" unicode="&#xff;" horiz-adv-x="1200" 
d="M68 961q0 66 44 107.5t109 41.5q59 0 94 -30.5t56 -86.5l237 -639l230 637q18 49 54 84t95 35t103.5 -41t44.5 -102q0 -18 -5.5 -41t-9.5 -33l-383 -920q-35 -84 -70.5 -142t-78.5 -95t-97 -53.5t-124 -16.5q-53 0 -92 7.5t-78 21.5q-35 12 -67 42t-32 87t38 92t85 35
q18 0 29.5 -2t21.5 -6q20 -6 35 -9.5t31 -3.5q41 0 64.5 12.5t46.5 53.5l10 24l-375 869q-6 16 -11 35.5t-5 36.5zM219 1356v4q0 66 48 107.5t114 41.5t114 -42t48 -107v-4q0 -66 -48.5 -108t-113.5 -42q-66 0 -114 42t-48 108zM657 1356v4q0 66 48 107.5t114 41.5t114 -42
t48 -107v-4q0 -66 -48 -108t-114 -42t-114 42t-48 108z" />
    <glyph glyph-name="OE" unicode="&#x152;" horiz-adv-x="2201" 
d="M109 713v4q0 152 55 282.5t156.5 227t240.5 152t309 55.5h1084q59 0 100 -41t41 -101q0 -59 -41 -99t-100 -40h-588v-291h496q59 0 100 -41t41 -100t-41 -99t-100 -40h-496v-301h598q59 0 100 -41t41 -101q0 -59 -41 -99t-100 -40h-1094q-170 0 -309 54.5t-240.5 150.5
t-156.5 226t-55 282zM438 717q0 -96 31 -175t88 -136.5t137 -89t176 -31.5h183v864h-183q-96 0 -176 -31t-137 -88t-88 -136t-31 -173v-4z" />
    <glyph glyph-name="oe" unicode="&#x153;" horiz-adv-x="2115" 
d="M86 543v4q0 119 46 222t125 181t185.5 123t229.5 45q129 0 234.5 -48t178.5 -134q72 86 175.5 134t228.5 48q137 0 237.5 -50t165 -128t95 -171t30.5 -179q0 -68 -42 -109t-103 -41h-617q23 -106 93.5 -160.5t175.5 -54.5q66 0 120 19.5t101 54.5q16 12 33.5 18.5
t42.5 6.5q53 0 87 -35t34 -88q0 -31 -12.5 -53.5t-28.5 -38.5q-72 -61 -166.5 -97.5t-214.5 -36.5q-135 0 -248 49.5t-191 137.5q-76 -86 -184.5 -136.5t-237.5 -50.5q-117 0 -221 44t-183 121t-124 180.5t-45 222.5zM393 547q0 -61 20.5 -115.5t57.5 -96.5t88.5 -66.5
t112.5 -24.5q63 0 114.5 23.5t87 64.5t54 95t18.5 116v4q0 61 -20.5 115.5t-57.5 96.5t-88 66.5t-112 24.5q-66 0 -116 -24.5t-86 -65.5t-54.5 -95.5t-18.5 -113.5v-4zM1251 635h469q-14 104 -73.5 168.5t-157.5 64.5t-158.5 -63.5t-79.5 -169.5z" />
    <glyph glyph-name="Ydieresis" unicode="&#x178;" horiz-adv-x="1591" 
d="M94 1266q-12 61 24 114.5t97 65.5q63 10 116.5 -25t63.5 -98q23 -119 61 -197.5t82 -129t89 -77t81.5 -37t60.5 -10.5h24q14 0 65 7.5t114.5 49.5t124 134t93.5 260q12 63 64.5 98t115.5 25q63 -12 99 -65.5t24 -114.5q-33 -170 -93.5 -288t-135 -195.5t-157.5 -121
t-159 -63.5v-455q0 -66 -45 -110.5t-110 -44.5q-66 0 -111 45t-45 110v455q-76 20 -158 63.5t-156.5 121t-135 195.5t-93.5 288zM416 1683v5q0 66 48 107.5t114 41.5t113.5 -42t47.5 -107v-5q0 -66 -48 -107.5t-113 -41.5q-66 0 -114 42t-48 107zM854 1683v5q0 66 48 107.5
t114 41.5t114 -42t48 -107v-5q0 -66 -48.5 -107.5t-113.5 -41.5q-66 0 -114 42t-48 107z" />
    <glyph glyph-name="circumflex" unicode="&#x2c6;" horiz-adv-x="1024" 
d="M158 1255q0 14 10 29.5t20 30.5l129 166q27 33 60 51t86 18h98q53 0 86 -18.5t60 -50.5l129 -166q10 -14 20 -29.5t10 -30.5q0 -25 -21.5 -37t-49.5 -12q-53 0 -95.5 13.5t-93.5 54.5l-96 80l-96 -80q-51 -41 -93 -54.5t-96 -13.5q-29 0 -48 12.5t-19 36.5z" />
    <glyph glyph-name="tilde" unicode="&#x2dc;" horiz-adv-x="1024" 
d="M104 1276q0 10 3.5 26.5t7.5 28.5q35 90 85 145.5t144 55.5q47 0 91 -12.5t83 -27.5t72 -27.5t61 -12.5q37 0 57.5 14.5t39.5 44.5q12 20 31.5 34t47.5 14q37 0 65 -26t28 -58q0 -10 -3.5 -26.5t-7.5 -29.5q-35 -90 -85 -145t-144 -55q-47 0 -91 12t-83 27.5t-73 27.5
t-60 12q-37 0 -58 -14t-39 -45q-12 -20 -31.5 -33.5t-47.5 -13.5q-37 0 -65 25.5t-28 58.5z" />
    <glyph glyph-name="uni2000" unicode="&#x2000;" horiz-adv-x="954" 
 />
    <glyph glyph-name="uni2001" unicode="&#x2001;" horiz-adv-x="1909" 
 />
    <glyph glyph-name="uni2002" unicode="&#x2002;" horiz-adv-x="954" 
 />
    <glyph glyph-name="uni2003" unicode="&#x2003;" horiz-adv-x="1909" 
 />
    <glyph glyph-name="uni2004" unicode="&#x2004;" horiz-adv-x="636" 
 />
    <glyph glyph-name="uni2005" unicode="&#x2005;" horiz-adv-x="477" 
 />
    <glyph glyph-name="uni2006" unicode="&#x2006;" horiz-adv-x="318" 
 />
    <glyph glyph-name="uni2007" unicode="&#x2007;" horiz-adv-x="318" 
 />
    <glyph glyph-name="uni2008" unicode="&#x2008;" horiz-adv-x="238" 
 />
    <glyph glyph-name="uni2009" unicode="&#x2009;" horiz-adv-x="381" 
 />
    <glyph glyph-name="uni200A" unicode="&#x200a;" horiz-adv-x="106" 
 />
    <glyph glyph-name="uni2010" unicode="&#x2010;" horiz-adv-x="835" 
d="M90 635q0 61 44 105t106 44h356q61 0 105 -44t44 -105t-44 -105.5t-105 -44.5h-356q-61 0 -105.5 44t-44.5 106z" />
    <glyph glyph-name="uni2011" unicode="&#x2011;" horiz-adv-x="835" 
d="M90 635q0 61 44 105t106 44h356q61 0 105 -44t44 -105t-44 -105.5t-105 -44.5h-356q-61 0 -105.5 44t-44.5 106z" />
    <glyph glyph-name="figuredash" unicode="&#x2012;" horiz-adv-x="835" 
d="M90 635q0 61 44 105t106 44h356q61 0 105 -44t44 -105t-44 -105.5t-105 -44.5h-356q-61 0 -105.5 44t-44.5 106z" />
    <glyph glyph-name="endash" unicode="&#x2013;" horiz-adv-x="1081" 
d="M90 635q0 59 43 102t103 43h610q59 0 102 -43t43 -102t-43 -102.5t-102 -43.5h-610q-59 0 -102.5 43t-43.5 103z" />
    <glyph glyph-name="emdash" unicode="&#x2014;" horiz-adv-x="1839" 
d="M90 635q0 59 43 102t103 43h1368q59 0 102 -43t43 -102t-43 -102.5t-102 -43.5h-1368q-59 0 -102.5 43t-43.5 103z" />
    <glyph glyph-name="quoteleft" unicode="&#x2018;" horiz-adv-x="585" 
d="M109 1001v9q0 113 31.5 195.5t88.5 140.5q47 47 109.5 72.5t120.5 25.5q41 0 59.5 -20.5t18.5 -49.5t-17.5 -45t-44.5 -22q-78 -18 -120 -69.5t-38 -125.5q53 -14 98.5 -58t45.5 -110v-4q0 -72 -46 -120t-124 -48q-86 0 -134 61.5t-48 167.5z" />
    <glyph glyph-name="quoteright" unicode="&#x2019;" horiz-adv-x="585" 
d="M49 844q0 29 17.5 45t44.5 22q78 18 119.5 69.5t37.5 125.5q-53 14 -98 58t-45 110v4q0 72 46 120t124 48q86 0 134 -61.5t48 -167.5v-9q0 -113 -31.5 -195.5t-89.5 -140.5q-47 -47 -109.5 -72.5t-119.5 -25.5q-41 0 -59.5 20.5t-18.5 49.5z" />
    <glyph glyph-name="quotesinglbase" unicode="&#x201a;" horiz-adv-x="585" 
d="M39 -262q0 29 17.5 45t43.5 22q78 18 120 69.5t38 125.5q-53 14 -98 58t-45 110v4q0 72 46 120t124 48q86 0 134 -61.5t48 -167.5v-9q0 -113 -32 -195.5t-89 -139.5q-47 -47 -109.5 -73t-119.5 -26q-41 0 -59.5 20.5t-18.5 49.5z" />
    <glyph glyph-name="quotedblleft" unicode="&#x201c;" horiz-adv-x="1105" 
d="M109 1001v9q0 113 31.5 195.5t88.5 140.5q47 47 109.5 72.5t120.5 25.5q41 0 59.5 -20.5t18.5 -49.5t-17.5 -45t-44.5 -22q-78 -18 -120 -69.5t-38 -125.5q53 -14 98.5 -58t45.5 -110v-4q0 -72 -46 -120t-124 -48q-86 0 -134 61.5t-48 167.5zM629 1001v9
q0 113 31.5 195.5t89.5 140.5q47 47 109.5 72.5t119.5 25.5q41 0 59.5 -20.5t18.5 -49.5t-17.5 -45t-44.5 -22q-78 -18 -119.5 -69.5t-37.5 -125.5q53 -14 98 -58t45 -110v-4q0 -72 -46 -120t-124 -48q-86 0 -134 61.5t-48 167.5z" />
    <glyph glyph-name="quotedblright" unicode="&#x201d;" horiz-adv-x="1105" 
d="M49 844q0 29 17.5 45t44.5 22q78 18 119.5 69.5t37.5 125.5q-53 14 -98 58t-45 110v4q0 72 46 120t124 48q86 0 134 -61.5t48 -167.5v-9q0 -113 -31.5 -195.5t-89.5 -140.5q-47 -47 -109.5 -72.5t-119.5 -25.5q-41 0 -59.5 20.5t-18.5 49.5zM569 844q0 29 17.5 45
t44.5 22q78 18 120 69.5t37 125.5q-53 14 -98 58t-45 110v4q0 72 46 120t124 48q86 0 134 -61.5t48 -167.5v-9q0 -113 -31.5 -195.5t-88.5 -140.5q-47 -47 -109.5 -72.5t-120.5 -25.5q-41 0 -59.5 20.5t-18.5 49.5z" />
    <glyph glyph-name="quotedblbase" unicode="&#x201e;" horiz-adv-x="1105" 
d="M39 -262q0 29 17.5 45t43.5 22q78 18 120 69.5t38 125.5q-53 14 -98 58t-45 110v4q0 72 46 120t124 48q86 0 134 -61.5t48 -167.5v-9q0 -113 -32 -195.5t-89 -139.5q-47 -47 -109.5 -73t-119.5 -26q-41 0 -59.5 20.5t-18.5 49.5zM559 -262q0 29 17.5 45t44.5 22
q78 18 119.5 69.5t37.5 125.5q-53 14 -98 58t-45 110v4q0 72 46 120t124 48q86 0 134 -61.5t48 -167.5v-9q0 -113 -31.5 -195.5t-89.5 -139.5q-47 -47 -109.5 -73t-119.5 -26q-41 0 -59.5 20.5t-18.5 49.5z" />
    <glyph glyph-name="bullet" unicode="&#x2022;" horiz-adv-x="1024" 
d="M207 719v4q0 63 23.5 118.5t65.5 96.5t97.5 64.5t118.5 23.5t118.5 -23.5t96.5 -64.5t65.5 -96.5t24.5 -118.5v-4q0 -63 -24.5 -118.5t-65.5 -96.5t-96.5 -64.5t-118.5 -23.5t-118.5 23.5t-97.5 64.5t-65.5 96t-23.5 119z" />
    <glyph glyph-name="ellipsis" unicode="&#x2026;" horiz-adv-x="1720" 
d="M115 162v4q0 74 48 124t126 50t126 -50t48 -124v-4q0 -74 -48 -124t-126 -50t-126 50t-48 124zM686 162v4q0 74 48 124t126 50t126 -50t48 -124v-4q0 -74 -48 -124t-126 -50t-126 50t-48 124zM1257 162v4q0 74 48.5 124t126.5 50t126 -50t48 -124v-4q0 -74 -48.5 -124
t-125.5 -50q-78 0 -126.5 50t-48.5 124z" />
    <glyph glyph-name="uni202F" unicode="&#x202f;" horiz-adv-x="381" 
 />
    <glyph glyph-name="guilsinglleft" unicode="&#x2039;" horiz-adv-x="763" 
d="M102 549q0 25 9.5 44t25.5 40l248 317q20 27 51 44.5t66 17.5q53 0 88 -38t35 -91q0 -23 -10.5 -45.5t-24.5 -38.5l-199 -248l205 -256q31 -41 31 -82q0 -53 -37 -91t-90 -38q-35 0 -62.5 15.5t-44.5 37.5l-256 328q-16 20 -25.5 39.5t-9.5 44.5z" />
    <glyph glyph-name="guilsinglright" unicode="&#x203a;" horiz-adv-x="763" 
d="M137 883q0 53 37 91t90 38q35 0 62.5 -15.5t44.5 -38.5l256 -327q16 -20 25.5 -40t9.5 -44q0 -25 -9.5 -44.5t-25.5 -39.5l-248 -318q-20 -27 -51 -44t-66 -17q-53 0 -88 38t-35 91q0 23 10.5 45.5t24.5 38.5l199 248l-205 256q-31 39 -31 82z" />
    <glyph glyph-name="uni205F" unicode="&#x205f;" horiz-adv-x="477" 
 />
    <glyph glyph-name="Euro" unicode="&#x20ac;" horiz-adv-x="1474" 
d="M88 547q0 43 31 73.5t74 30.5h61q-2 16 -2 31.5v32.5v37.5t2 38.5h-61q-43 0 -74 29.5t-31 72.5t31 73.5t74 30.5h100q31 100 86 185.5t130 147t170 95t210 33.5q160 0 263 -51t183 -137q16 -16 29.5 -44t13.5 -63q0 -61 -45 -104t-106 -43q-41 0 -66.5 15.5t-42.5 31.5
q-49 55 -104.5 85t-130.5 30q-92 0 -156.5 -47.5t-103.5 -133.5h284q43 0 74 -30.5t31 -73.5t-31 -72.5t-74 -29.5h-334q-2 -16 -2 -35v-37v-34.5t2 -33.5h334q43 0 74 -30.5t31 -73.5t-31 -73t-74 -30h-289q39 -92 109 -140t168 -48q78 0 132 31.5t108 93.5q18 23 44.5 36
t61.5 13q59 0 100 -41t41 -100q0 -29 -10 -52.5t-20 -37.5q-86 -104 -193.5 -164t-263.5 -60q-117 0 -215 34t-175 95.5t-132.5 148.5t-85.5 191h-94q-43 0 -74 30t-31 73z" />
    <glyph glyph-name="trademark" unicode="&#x2122;" horiz-adv-x="1413" 
d="M41 1370q0 27 18.5 45.5t44.5 18.5h418q27 0 45.5 -18.5t18.5 -45.5t-18.5 -45t-45.5 -18h-137v-445q0 -29 -21.5 -50t-50.5 -21t-50 21.5t-21 49.5v445h-138q-27 0 -45 18t-18 45zM707 858v514q0 29 20.5 49.5t48.5 20.5h17q23 0 38 -10.5t25 -26.5l166 -272l170 272
q20 37 61 37h17q29 0 48 -20.5t19 -49.5v-514q0 -29 -19.5 -48t-47.5 -19q-29 0 -48.5 19t-19.5 48v330l-123 -191q-23 -37 -57 -36q-35 0 -59 36l-121 187v-326q0 -29 -19.5 -48t-48.5 -19t-48 19t-19 48z" />
    <glyph glyph-name="uni25FC" unicode="&#x25fc;" horiz-adv-x="1116" 
d="M0 0v1116h1116v-1116h-1116z" />
    <glyph glyph-name="uniFB01" unicode="&#xfb01;" horiz-adv-x="1400" 
d="M51 958q0 53 38 91t91 38h13v70q0 178 88 266q86 86 251 86q37 0 69 -2t58 -6q41 -6 74 -38.5t33 -86.5q0 -53 -37 -91t-90 -38h-27q-113 0 -112 -119v-43h135q53 0 91 -36.5t38 -90.5q0 -53 -38 -90t-91 -37h-131v-688q0 -66 -45 -110.5t-111 -44.5t-110.5 45t-44.5 110
v688h-13q-53 0 -91 37t-38 90zM918 1356v4q0 68 50 106.5t124 38.5t124 -39t50 -106v-4q0 -68 -50.5 -108t-123.5 -40q-74 0 -124 40t-50 108zM936 143v811q0 66 45 111t111 45t110.5 -45t44.5 -111v-811q0 -66 -45 -110.5t-110 -44.5q-66 0 -111 45t-45 110z" />
    <glyph glyph-name="uniFB02" unicode="&#xfb02;" horiz-adv-x="1400" 
d="M51 958q0 53 38 91t91 38h13v70q0 178 88 266q86 86 251 86q37 0 69 -2t58 -6q41 -6 74 -38.5t33 -86.5q0 -53 -37 -91t-90 -38h-27q-113 0 -112 -119v-43h135q53 0 91 -36.5t38 -90.5q0 -53 -38 -90t-91 -37h-131v-688q0 -66 -45 -110.5t-111 -44.5t-110.5 45t-44.5 110
v688h-13q-53 0 -91 37t-38 90zM936 143v1209q0 66 45 110.5t111 44.5t110.5 -45t44.5 -110v-1209q0 -66 -45 -110.5t-110 -44.5q-66 0 -111 45t-45 110z" />
    <glyph glyph-name="uniFB03" unicode="&#xfb03;" horiz-adv-x="2183" 
d="M51 958q0 53 38 91t91 38h13v70q0 178 88 266q86 86 251 86q37 0 69 -2t58 -6q41 -6 74 -38.5t33 -86.5q0 -53 -37 -91t-90 -38h-27q-113 0 -112 -119v-43h135q53 0 91 -36.5t38 -90.5q0 -53 -38 -90t-91 -37h-131v-688q0 -66 -45 -110.5t-111 -44.5t-110.5 45t-44.5 110
v688h-13q-53 0 -91 37t-38 90zM834 958q0 53 37.5 91t91.5 38h12v70q0 178 88 266q86 86 252 86q37 0 68.5 -2t58.5 -6q41 -6 73.5 -38.5t32.5 -86.5q0 -53 -36.5 -91t-90.5 -38h-26q-113 0 -113 -119v-43h135q53 0 91 -36.5t38 -90.5q0 -53 -38 -90t-91 -37h-131v-688
q0 -66 -45 -110.5t-111 -44.5t-110.5 45t-44.5 110v688h-12q-53 0 -91 37t-38 90zM1700 1356v4q0 68 50 106.5t124 38.5t124 -39t50 -106v-4q0 -68 -50 -108t-124 -40t-124 40t-50 108zM1718 143v811q0 66 45 111t111 45t111 -45t45 -111v-811q0 -66 -45.5 -110.5
t-110.5 -44.5q-66 0 -111 45t-45 110z" />
    <glyph glyph-name="uniFB04" unicode="&#xfb04;" horiz-adv-x="2183" 
d="M51 958q0 53 38 91t91 38h13v70q0 178 88 266q86 86 251 86q37 0 69 -2t58 -6q41 -6 74 -38.5t33 -86.5q0 -53 -37 -91t-90 -38h-27q-113 0 -112 -119v-43h135q53 0 91 -36.5t38 -90.5q0 -53 -38 -90t-91 -37h-131v-688q0 -66 -45 -110.5t-111 -44.5t-110.5 45t-44.5 110
v688h-13q-53 0 -91 37t-38 90zM834 958q0 53 37.5 91t91.5 38h12v70q0 178 88 266q86 86 252 86q37 0 68.5 -2t58.5 -6q41 -6 73.5 -38.5t32.5 -86.5q0 -53 -36.5 -91t-90.5 -38h-26q-113 0 -113 -119v-43h135q53 0 91 -36.5t38 -90.5q0 -53 -38 -90t-91 -37h-131v-688
q0 -66 -45 -110.5t-111 -44.5t-110.5 45t-44.5 110v688h-12q-53 0 -91 37t-38 90zM1718 143v1209q0 66 45 110.5t111 44.5t111 -45t45 -110v-1209q0 -66 -45.5 -110.5t-110.5 -44.5q-66 0 -111 45t-45 110z" />
    </font>
</defs>
</svg>
